C.C. Catch – Ultimate C.C. Catch (2007)

Download
C.C. Catch - Ultimate C.C. Catch (2007)

C.C. Catch – Ultimate C.C. Catch (2007)
EAC | Flac(Image) + Cue + Log & MP3 CBR 320Kbps
Edel, 0186402ERE | ~ 1111 or 361 Mb | Scans(jpg) -> 24 Mb
Pop, Euro-pop, Synth-pop, Eurodance

Born Caroline Catharina Müller in the Netherlands, she moved with her family to Germany in the late ’70s. In 1980, she became a member of the girl quartet Optimal, who issued two singles. During one of the band’s concerts in Hamburg, she was approached by songwriter/producer Dieter Bohlen who had just taken the continental charts by storm with his duo Modern Talking. She signed up with Bohlen who then changed her stage name to C.C. Catch, and the debut single of the newly christened singer – "I Can Lose My Heart Tonight" – was released in the summer of 1985.

Her collaboration with Bohlen lasted until 1989, resulted in four albums and 12 singles, and made C.C. Catch a queen of continental discos. However, the artist felt that she was largely perceived as a female version of Bohlen’s own band Modern Talking, and she wanted to diversify her repertoire by contributing her own material. After Bohlen denied her request, the singer decided not to renew the contract with her producer and Hansa Records. She subsequently won in court the right to use the name C.C. Catch and her first album without Bohlen – tellingly titled Hear What I Say – came out in the end of 1989. Produced in London by Andy Taylor, Dave Clayton, and Jo Dworniak, it was markedly different in style from her previous releases and contained seven songs co-written by the artist herself. The album was only a moderate success, possibly because the public had a hard time accepting her drastic change of style. C.C. Catch’s former label Hansa might have also contributed to that situation, by simultaneously issuing a compilation of her Bohlen-produced hits. Subsequently, C.C. Catch retired from the music business, became interested in meditation, and married a yoga teacher in London. However, she agreed to collaborate on the 1998 collection of her greatest hits and reportedly began working on a new album.

by Yuri German, allmusic

C.C. Catch – Ultimate C.C. Catch (2007):

C.C. Catch - Ultimate C.C. Catch (2007)

Tracklist CD1:

01.I Can Lose My Heart Tonight (Extended Club Remix) (5:54)
02.House Of Mystic Lights (Radio Swing Mix) (3:03)
03.Heartbeat City (12” Version) (4:56)
04.Are You Man Enough (Original Single Edit) (3:38)
05.Do You Love As You Look (3:35)
06.’Cause You Are Young (12” Version) (4:46)
07.Hollywood Nights (3:12)
08.Soul Survivor (12” Version) (5:12)
09.Don’t Wait Too Long (3:22)
10.Baby I Need Your Love (Original Single Edit) (3:01)
11.Are You Serious (3:05)
12.Midnight Gambler (3:34)
13.Smokey Joe’s Cafe (3:43)
14.Nothing But A Heartache (Original Single Edit) (3:03)
15.Little By Little (3:04)
16.Wild Fire (3:36)
17.Dancing In Shadows (3:36)
18.You Shot A Hole In My Soul (12” Version) (5:18)
19.Picture Blue Eyes (3:33)
20.Summer Kisses (12” Version) (6:10)

EAC Log
Exact Audio Copy V0.99 prebeta 5 from 4. May 2009

Отчёт EAC об извлечении, выполненном 2. января 2010, 18:07

C.C. Catch / Ultimate C.C. Catch CD1

Дисковод: ASUS DRW-2014S1T Adapter: 3 ID: 0

Режим чтения : Достоверность
Использование точного потока : Да
Отключение кэша аудио : Да
Использование указателей C2 : Нет

Коррекция смещения при чтении : 6
Способность читать области Lead-in и Lead-out : Нет
Заполнение пропущенных сэмплов тишиной : Да
Удаление блоков с тишиной в начале и конце : Нет
При вычислениях CRC использовались нулевые сэмплы : Да
Интерфейс : Установленный внешний ASPI-интерфейс

Выходной формат : Внутренние WAV-операции
Формат сэмплов : 44.100 Гц; 16 бит; стерео

TOC извлечённого CD

Трек | Старт | Длительность | Начальный сектор | Конечный сектор
––––––––––––––––––––––––––––––––––-
1 | 0:00.00 | 5:53.60 | 0 | 26534
2 | 5:53.60 | 3:03.28 | 26535 | 40287
3 | 8:57.13 | 4:56.11 | 40288 | 62498
4 | 13:53.24 | 3:38.36 | 62499 | 78884
5 | 17:31.60 | 3:34.70 | 78885 | 95004
6 | 21:06.55 | 4:45.69 | 95005 | 116448
7 | 25:52.49 | 3:11.43 | 116449 | 130816
8 | 29:04.17 | 5:12.11 | 130817 | 154227
9 | 34:16.28 | 3:22.25 | 154228 | 169402
10 | 37:38.53 | 3:01.14 | 169403 | 182991
11 | 40:39.67 | 3:04.61 | 182992 | 196852
12 | 43:44.53 | 3:34.24 | 196853 | 212926
13 | 47:19.02 | 3:42.50 | 212927 | 229626
14 | 51:01.52 | 3:02.56 | 229627 | 243332
15 | 54:04.33 | 3:04.16 | 243333 | 257148
16 | 57:08.49 | 3:35.65 | 257149 | 273338
17 | 60:44.39 | 3:35.62 | 273339 | 289525
18 | 64:20.26 | 5:17.61 | 289526 | 313361
19 | 69:38.12 | 3:32.65 | 313362 | 329326
20 | 73:11.02 | 6:09.39 | 329327 | 357040

Характеристики диапазона извлечения и сообщения об ошибках

Выбранный диапазон

Имя файла Z:TempC.C. Catch – Ultimate C.C. Catch CD1.wav

Пиковый уровень 100.0 %
Качество диапазона 99.9 %
CRC теста 1FA929EA
CRC копии 1FA929EA
Копирование… OK

Ошибок не произошло

AccurateRip: сводка

Трек 1 точное извлечение (доверие 1) [4E834479]
Трек 2 точное извлечение (доверие 1) [6216F856]
Трек 3 точное извлечение (доверие 1) [61381DD1]
Трек 4 точное извлечение (доверие 1) [14EE78D5]
Трек 5 точное извлечение (доверие 1) [A492E00C]
Трек 6 точное извлечение (доверие 1) [645EC09E]
Трек 7 точное извлечение (доверие 1) [64B7FB86]
Трек 8 точное извлечение (доверие 1) [4BC3CDD0]
Трек 9 точное извлечение (доверие 1) [12DACCCB]
Трек 10 точное извлечение (доверие 1) [C2FC59CD]
Трек 11 точное извлечение (доверие 1) [492443F9]
Трек 12 точное извлечение (доверие 1) [60327643]
Трек 13 точное извлечение (доверие 1) [E8848472]
Трек 14 точное извлечение (доверие 1) [0FA77750]
Трек 15 точное извлечение (доверие 1) [9290C222]
Трек 16 точное извлечение (доверие 1) [1C244568]
Трек 17 точное извлечение (доверие 1) [140DCB85]
Трек 18 точное извлечение (доверие 1) [81EDE874]
Трек 19 точное извлечение (доверие 1) [19866110]
Трек 20 точное извлечение (доверие 1) [F20E35F3]

Все треки извлечены точно

Конец отчёта

C.C. Catch - Ultimate C.C. Catch (2007)

Tracklist CD2:

01.House Of Mystic Lights (4:10)
02.Strangers By Night (4:54)
03.Heartbreak Hotel (2:54)
04.Heaven And Hell (2:43)
05.Soul Survivor (2:33)
06.Good Guys Only Win In Movies (3:06)
07.Back Seat Of Your Cadillac (2:08)
08.I Can Lose My Heart Tonight (3:59)
09.Summer Kisses (1:26)
10.The Decade 7” Remix (5:25)
11.Jump In My Car (2:57)
12.Fire Of Love (2:58)
13.You Can’t Run Away From It (3:13)
14.V.I.P. They’re Calling Me Tonight (3:28)
15.Don’t Be A Hero (3:35)
16.Born On The Wind (3:51)
17.One Night’s Not Enough (12” Version) (5:16)
18.Don’t Shoot My Sheriff Tonight (3:08)
19.Like A Hurricane (3:15)
20.Stay (12” Version) (5:47)

EAC Log
Exact Audio Copy V0.99 prebeta 5 from 4. May 2009

Отчёт EAC об извлечении, выполненном 2. января 2010, 18:35

C.C. Catch / Ultimate C.C. Catch CD2

Дисковод: ASUS DRW-2014S1T Adapter: 3 ID: 0

Режим чтения : Достоверность
Использование точного потока : Да
Отключение кэша аудио : Да
Использование указателей C2 : Нет

Коррекция смещения при чтении : 6
Способность читать области Lead-in и Lead-out : Нет
Заполнение пропущенных сэмплов тишиной : Да
Удаление блоков с тишиной в начале и конце : Нет
При вычислениях CRC использовались нулевые сэмплы : Да
Интерфейс : Установленный внешний ASPI-интерфейс

Выходной формат : Внутренние WAV-операции
Формат сэмплов : 44.100 Гц; 16 бит; стерео

TOC извлечённого CD

Трек | Старт | Длительность | Начальный сектор | Конечный сектор
––––––––––––––––––––––––––––––––––-
1 | 0:00.00 | 4:10.00 | 0 | 18749
2 | 4:10.00 | 4:53.53 | 18750 | 40777
3 | 9:03.53 | 2:54.28 | 40778 | 53855
4 | 11:58.06 | 2:43.20 | 53856 | 66100
5 | 14:41.26 | 2:32.45 | 66101 | 77545
6 | 17:13.71 | 3:06.37 | 77546 | 91532
7 | 20:20.33 | 2:07.48 | 91533 | 101105
8 | 22:28.06 | 3:59.23 | 101106 | 119053
9 | 26:27.29 | 1:26.21 | 119054 | 125524
10 | 27:53.50 | 5:25.27 | 125525 | 149926
11 | 33:19.02 | 2:56.46 | 149927 | 163172
12 | 36:15.48 | 2:57.59 | 163173 | 176506
13 | 39:13.32 | 3:13.12 | 176507 | 190993
14 | 42:26.44 | 3:27.51 | 190994 | 206569
15 | 45:54.20 | 3:34.44 | 206570 | 222663
16 | 49:28.64 | 3:50.59 | 222664 | 239972
17 | 53:19.48 | 5:16.33 | 239973 | 263705
18 | 58:36.06 | 3:07.69 | 263706 | 277799
19 | 61:44.00 | 3:15.29 | 277800 | 292453
20 | 64:59.29 | 5:46.46 | 292454 | 318449

Характеристики диапазона извлечения и сообщения об ошибках

Выбранный диапазон

Имя файла Z:TempC.C. Catch – Ultimate C.C. Catch CD2.wav

Пиковый уровень 99.0 %
Качество диапазона 100.0 %
CRC теста DED729CD
CRC копии DED729CD
Копирование… OK

Ошибок не произошло

AccurateRip: сводка

Трек 1 точное извлечение (доверие 1) [14088800]
Трек 2 точное извлечение (доверие 1) [561B3A26]
Трек 3 точное извлечение (доверие 1) [DB25D146]
Трек 4 точное извлечение (доверие 1) [B89E9527]
Трек 5 точное извлечение (доверие 1) [54C9EA24]
Трек 6 точное извлечение (доверие 1) [0D774491]
Трек 7 точное извлечение (доверие 1) [5120D121]
Трек 8 точное извлечение (доверие 1) [D8C16B85]
Трек 9 точное извлечение (доверие 1) [2DE7419F]
Трек 10 точное извлечение (доверие 1) [C8B3DACA]
Трек 11 точное извлечение (доверие 1) [94E1B076]
Трек 12 точное извлечение (доверие 1) [3B9DFEA0]
Трек 13 точное извлечение (доверие 1) [4F852F7B]
Трек 14 точное извлечение (доверие 1) [2F353ED0]
Трек 15 точное извлечение (доверие 1) [D807A6E6]
Трек 16 точное извлечение (доверие 1) [8939D217]
Трек 17 точное извлечение (доверие 1) [60F1F8AB]
Трек 18 точное извлечение (доверие 1) [0A239558]
Трек 19 точное извлечение (доверие 1) [07525A19]
Трек 20 точное извлечение (доверие 1) [BECDA73B]

Все треки извлечены точно

Конец отчёта

C.C. Catch - Ultimate C.C. Catch (2007)

All thanks go to the original releaser

C.C.Catch or C.C.Catch in my Blog

Download C.C. Catch – Ultimate C.C. Catch (2007):

C.C. Catch – Ultimate C.C. Catch (2007) Download, Warez, DDL, Free, Full Album, Torrent, Legal.

Download