C.C. Catch – Best Of (1998)

Download
C.C. Catch - Best Of (1998)

C.C. Catch – Best Of (1998)
EAC | Flac(Image) + Cue + Log & MP3 CBR 320Kbps
Hansa, 74321 62125-2 | ~ 622 or 188 Mb | Scans(jpg) -> 23 Mb
Pop, Euro-pop, Synth-pop, Eurodance

Born Caroline Catharina Müller in the Netherlands, she moved with her family to Germany in the late ’70s. In 1980, she became a member of the girl quartet Optimal, who issued two singles. During one of the band’s concerts in Hamburg, she was approached by songwriter/producer Dieter Bohlen who had just taken the continental charts by storm with his duo Modern Talking. She signed up with Bohlen who then changed her stage name to C.C. Catch, and the debut single of the newly christened singer – "I Can Lose My Heart Tonight" – was released in the summer of 1985.

Her collaboration with Bohlen lasted until 1989, resulted in four albums and 12 singles, and made C.C. Catch a queen of continental discos. However, the artist felt that she was largely perceived as a female version of Bohlen’s own band Modern Talking, and she wanted to diversify her repertoire by contributing her own material. After Bohlen denied her request, the singer decided not to renew the contract with her producer and Hansa Records. She subsequently won in court the right to use the name C.C. Catch and her first album without Bohlen – tellingly titled Hear What I Say – came out in the end of 1989. Produced in London by Andy Taylor, Dave Clayton, and Jo Dworniak, it was markedly different in style from her previous releases and contained seven songs co-written by the artist herself. The album was only a moderate success, possibly because the public had a hard time accepting her drastic change of style. C.C. Catch’s former label Hansa might have also contributed to that situation, by simultaneously issuing a compilation of her Bohlen-produced hits. Subsequently, C.C. Catch retired from the music business, became interested in meditation, and married a yoga teacher in London. However, she agreed to collaborate on the 1998 collection of her greatest hits and reportedly began working on a new album.

by Yuri German, allmusic

C.C. Catch – Best Of (1998):

C.C. Catch - Best Of (1998)

Tracklist:

01.I Can Lose My Heart Tonight ’98 (Rap Version) (3:14)
02.Soul Survivor ’98 (Rap Version) (3:04)
03.Cause You Are Young (3:29)
04.Heartbreak Hotel (3:35)
05.Strangers By Night (3:39)
06.Heaven & Hell (3:39)
07.Backseat Of Your Cadillac (3:22)
08.I Can Lose My Heart Tonight ’98 (New Vocal Version) (3:31)
09.Soul Survivor ’98 (New Vocal Version) (3:39)
10.Jump In My Car (3:50)
11.Are You Man Enough (3:38)
12.Good Guys Only Win In Movies (5:44)
13.Dancing In Shadows (3:36)
14.House Of Mystic Lights (3:05)
15.Nothing But A Heartache (3:03)
16.Summer Kisses (3:51)
17.Soul Survivor (3:17)
18.I Can Lose My Heart Tonight (3:50)
19.C.C. Catch Megamix ’98 (Short Version) (4:56)
20.C.C. Catch Megamix ’98 (Long Version) (8:01)

EAC Log
Exact Audio Copy V0.99 prebeta 5 from 4. May 2009

Отчёт EAC об извлечении, выполненном 29. октября 2009, 3:05

C.C. Catch / Best Of

Дисковод: ASUS DRW-2014S1T Adapter: 1 ID: 0

Режим чтения : Достоверность
Использование точного потока : Да
Отключение кэша аудио : Да
Использование указателей C2 : Нет

Коррекция смещения при чтении : 6
Способность читать области Lead-in и Lead-out : Нет
Заполнение пропущенных сэмплов тишиной : Да
Удаление блоков с тишиной в начале и конце : Нет
При вычислениях CRC использовались нулевые сэмплы : Да
Интерфейс : Установленный внешний ASPI-интерфейс

Выходной формат : Внутренние WAV-операции
Формат сэмплов : 44.100 Гц; 16 бит; стерео

TOC извлечённого CD

Трек | Старт | Длительность | Начальный сектор | Конечный сектор
––––––––––––––––––––––––––––––––––-
1 | 0:00.32 | 3:14.00 | 32 | 14581
2 | 3:14.32 | 3:03.38 | 14582 | 28344
3 | 6:17.70 | 3:29.37 | 28345 | 44056
4 | 9:47.32 | 3:35.25 | 44057 | 60206
5 | 13:22.57 | 3:38.58 | 60207 | 76614
6 | 17:01.40 | 3:38.72 | 76615 | 93036
7 | 20:40.37 | 3:22.08 | 93037 | 108194
8 | 24:02.45 | 3:31.17 | 108195 | 124036
9 | 27:33.62 | 3:38.70 | 124037 | 140456
10 | 31:12.57 | 3:50.18 | 140457 | 157724
11 | 35:03.00 | 3:38.15 | 157725 | 174089
12 | 38:41.15 | 5:44.02 | 174090 | 199891
13 | 44:25.17 | 3:35.50 | 199892 | 216066
14 | 48:00.67 | 3:04.50 | 216067 | 229916
15 | 51:05.42 | 3:02.70 | 229917 | 243636
16 | 54:08.37 | 3:51.20 | 243637 | 260981
17 | 57:59.57 | 3:17.18 | 260982 | 275774
18 | 61:17.00 | 3:49.72 | 275775 | 293021
19 | 65:06.72 | 4:55.70 | 293022 | 315216
20 | 70:02.67 | 8:00.40 | 315217 | 351256

Характеристики диапазона извлечения и сообщения об ошибках

Выбранный диапазон

Имя файла Z:TempC.C. Catch – Best Of.wav

Пиковый уровень 100.0 %
Качество диапазона 99.9 %
CRC теста 2744DB6E
CRC копии 2744DB6E
Копирование… OK

Ошибок не произошло

AccurateRip: сводка

Трек 1 точное извлечение (доверие 5) [0F588391]
Трек 2 точное извлечение (доверие 5) [81B093E9]
Трек 3 точное извлечение (доверие 5) [D10720A0]
Трек 4 точное извлечение (доверие 5) [C5C17C74]
Трек 5 точное извлечение (доверие 5) [7B6005FF]
Трек 6 точное извлечение (доверие 5) [E7AA859F]
Трек 7 точное извлечение (доверие 5) [32FF580B]
Трек 8 точное извлечение (доверие 5) [90CB2526]
Трек 9 точное извлечение (доверие 5) [7FE1D118]
Трек 10 точное извлечение (доверие 5) [ACC0EA20]
Трек 11 точное извлечение (доверие 5) [225E0A36]
Трек 12 точное извлечение (доверие 5) [16475708]
Трек 13 точное извлечение (доверие 4) [05CC5023]
Трек 14 точное извлечение (доверие 5) [70363B21]
Трек 15 точное извлечение (доверие 5) [7C1A3A8B]
Трек 16 точное извлечение (доверие 4) [46437231]
Трек 17 точное извлечение (доверие 5) [9761FD50]
Трек 18 точное извлечение (доверие 4) [107082F0]
Трек 19 точное извлечение (доверие 4) [6A4AFF18]
Трек 20 точное извлечение (доверие 4) [9F788FE4]

Все треки извлечены точно

Конец отчёта

CUETools Log
[CUETools log; Date: 08.10.2017 18:22:10; Version: 2.1.5]
Pregap length 00:00:32.
[AccurateRip ID: 0033fd29-03030f91-25124b14] found.
Track [ CRC | V2 ] Status
01 [0f588391|3ade175e] (16+19/35) Accurately ripped
02 [81b093e9|c20dfb49] (15+19/34) Accurately ripped
03 [d10720a0|039d1a2a] (16+18/34) Accurately ripped
04 [c5c17c74|8ef1b9d2] (15+18/33) Accurately ripped
05 [7b6005ff|8a0e618c] (15+18/33) Accurately ripped
06 [e7aa859f|c9c0b0b8] (15+17/32) Accurately ripped
07 [32ff580b|672f21a9] (15+16/31) Accurately ripped
08 [90cb2526|7817a971] (16+17/33) Accurately ripped
09 [7fe1d118|cfd3a50b] (15+17/32) Accurately ripped
10 [acc0ea20|b03e8d0c] (15+17/32) Accurately ripped
11 [225e0a36|511d0c25] (15+17/32) Accurately ripped
12 [16475708|aaca3347] (15+17/32) Accurately ripped
13 [05cc5023|113b343c] (13+16/29) Accurately ripped
14 [70363b21|56be5841] (15+17/32) Accurately ripped
15 [7c1a3a8b|807f6f7b] (15+16/31) Accurately ripped
16 [46437231|66d4d229] (14+17/31) Accurately ripped
17 [9761fd50|4c4b3ea9] (15+17/32) Accurately ripped
18 [107082f0|cbf65cee] (15+17/32) Accurately ripped
19 [6a4aff18|8b26c1e0] (13+16/29) Accurately ripped
20 [9f788fe4|77f2b4ae] (14+16/30) Accurately ripped
Offsetted by -659:
01 [fda1c6ac] (00/35) No match (V2 was not tested)
02 [683ca778] (00/34) No match (V2 was not tested)
03 [b503bf47] (00/34) No match (V2 was not tested)
04 [6e6707fa] (00/33) No match (V2 was not tested)
05 [b5e8d122] (00/33) No match (V2 was not tested)
06 [535ecb83] (00/32) No match (V2 was not tested)
07 [7979f626] (00/31) No match (V2 was not tested)
08 [384e9c13] (00/33) No match (V2 was not tested)
09 [2220c3d4] (00/32) No match (V2 was not tested)
10 [16d4549d] (00/32) No match (V2 was not tested)
11 [585ba32c] (00/32) No match (V2 was not tested)
12 [11c4b397] (00/32) No match (V2 was not tested)
13 [23c9cc46] (00/29) No match (V2 was not tested)
14 [284d95cd] (00/32) No match (V2 was not tested)
15 [a6a652dc] (00/31) No match (V2 was not tested)
16 [c37ae0f1] (00/31) No match (V2 was not tested)
17 [d121927f] (00/32) No match (V2 was not tested)
18 [faeaf048] (00/32) No match (V2 was not tested)
19 [1760d738] (00/29) No match (V2 was not tested)
20 [cae05ec2] (00/30) No match (V2 was not tested)

Track Peak [ CRC32 ] [W/O NULL] [ LOG ]
– 100,0 [2744DB6E] [6E751978] CRC32
01 99,3 [85F1023E] [F07DEA3D]
02 99,3 [A3DFCF20] [ED4349E4]
03 99,4 [5508FEB9] [2848352E]
04 99,6 [33AD025B] [839CA041]
05 100,0 [4769D60D] [9C6795BF]
06 99,0 [690FBAE7] [3C4FF800]
07 99,3 [E3442BB8] [5AA66F46]
08 97,0 [5A328472] [8BC0E713]
09 97,1 [38331998] [7468AF5C]
10 99,0 [EA421F33] [B3D298A7]
11 99,0 [674EFDA4] [FA9F47D2]
12 99,0 [BCEF05D7] [32C0FA2F]
13 99,0 [1DB6231B] [336A9340]
14 99,5 [52146134] [3E25B95A]
15 99,0 [6B2E1404] [587127F3]
16 99,0 [3282336F] [1940490A]
17 99,0 [1F932834] [8CF3B54B]
18 99,0 [F3250018] [4FC500A0]
19 97,0 [56EADB84] [E9B700E6]
20 97,0 [9D87CEB6] [AD0EC1A8]

C.C. Catch - Best Of (1998)

All thanks go to the original releaser

C.C.Catch or C.C.Catch in my Blog

Download C.C. Catch – Best Of (1998):

C.C. Catch – Best Of (1998) Download, Warez, DDL, Free, Full Album, Torrent, Legal.

Download