Bumblebee Unlimited – Sting Like A Bee (1979) [Reissue 2000]

Download
Bumblebee Unlimited - Sting Like A Bee (1979) [Reissue 2000]

Bumblebee Unlimited – Sting Like A Bee (1979) [Reissue 2000]
XLD Rip | FLAC (Tracks) +CUE, LOG | 438 MB | Covers Included
Genre: Disco, Funk, Soul, R&B | Label: Unidisc | Catalog Number: AGEK-2317

Bumblebee Unlimited was a studio concept of producers/songwriters/arrangers Gregory Carmichael and Patrick Adams that merged hot disco music with sped up vocals to suggest singing bugs. One track even makes a sly reference to "Fly of the Bumblebee." The vocalists who get "bug-a-zied" include Leroy Burgess and Carmichael. Burgess is most recognizable on the bouncy "I Love You," which is similar to his work on Phreek’s "Everybody Loves a Good Thing" and ‘Honey Bunn." There’s even a mack daddy bee on "Lady Bug," which is also represented in its 12" version. Other standouts include "Space Shuttle Ride," the thumpin’ and humpin’ "Love Bug," the bass epic "Funk For Days," and "Everybody Dance" – not the Chic hit – which can also be found on Star Funk, Vol. 29. You can definitely hear the roots of house music in this album that is slammin’ through and through. Get stung today! Originally issued as a 1979 RCA LP, Quebec label.

XLD Log
X Lossless Decoder version 20100926 (123.1)

XLD extraction logfile from 2010-10-16 13:55:35 +0200

Bumblebee Unlimited / Sting Like a Bee

Used drive : OPTIARC DVD RW AD-5680H (revision 3AHB)

Use cdparanoia mode : YES (CDParanoia III 10.2 engine)
Disable audio cache : OK for the drive with cache less than 2750KB
Make use of C2 pointers : NO
Read offset correction : 48
Max retry count : 100
Gap status : Analyzed, Appended

TOC of the extracted CD
Track | Start | Length | Start sector | End sector
––––––––––––––––––––––––––––-
1 | 00:00:00 | 07:50:65 | 0 | 35314
2 | 07:50:65 | 09:52:20 | 35315 | 79734
3 | 17:43:10 | 08:07:22 | 79735 | 116281
4 | 25:50:32 | 06:33:38 | 116282 | 145794
5 | 32:23:70 | 05:21:07 | 145795 | 169876
6 | 37:45:02 | 07:16:38 | 169877 | 202614
7 | 45:01:40 | 04:07:20 | 202615 | 221159
8 | 49:08:60 | 08:25:22 | 221160 | 259056
9 | 57:34:07 | 08:46:08 | 259057 | 298514

All Tracks
Album gain : -0.03 dB
Peak : 1.000000

Track 01
Filename : /Users/Shared/Bumblebee Unlimited – Sting Like A Bee (2000) [FLAC]/Bumblebee Unlimited – Sting Like a Bee (2000) [FLAC]/01 I Got A Big Bee.flac
Pre-gap length : 00:02:00

Track gain : -1.24 dB
Peak : 1.000000
CRC32 hash (test run) : DB6FAFA6
CRC32 hash : DB6FAFA6
CRC32 hash (skip zero) : E3F40C70
AccurateRip signature : DC791A0A
->Accurately ripped! (confidence 3)
Statistics
Read error : 0
Skipped (treated as error) : 0
Edge jitter error (maybe fixed) : 0
Atom jitter error (maybe fixed) : 0
Drift error (maybe fixed) : 0
Dropped bytes error (maybe fixed) : 0
Duplicated bytes error (maybe fixed) : 0
Inconsistency in error sectors : 0

Track 02
Filename : /Users/Shared/Bumblebee Unlimited – Sting Like A Bee (2000) [FLAC]/Bumblebee Unlimited – Sting Like a Bee (2000) [FLAC]/02 Lady Bug.flac
Pre-gap length : 00:02:43

Track gain : 2.04 dB
Peak : 0.714355
CRC32 hash (test run) : D1A48378
CRC32 hash : D1A48378
CRC32 hash (skip zero) : 46261D34
AccurateRip signature : E5F72DD3
->Accurately ripped! (confidence 3)
Statistics
Read error : 0
Skipped (treated as error) : 0
Edge jitter error (maybe fixed) : 0
Atom jitter error (maybe fixed) : 0
Drift error (maybe fixed) : 0
Dropped bytes error (maybe fixed) : 0
Duplicated bytes error (maybe fixed) : 0
Inconsistency in error sectors : 0

Track 03
Filename : /Users/Shared/Bumblebee Unlimited – Sting Like A Bee (2000) [FLAC]/Bumblebee Unlimited – Sting Like a Bee (2000) [FLAC]/03 I Love You.flac
Pre-gap length : 00:02:42

Track gain : 1.89 dB
Peak : 0.818298
CRC32 hash (test run) : 11358335
CRC32 hash : 11358335
CRC32 hash (skip zero) : 61F64E4C
AccurateRip signature : B07E9393
->Accurately ripped! (confidence 3)
Statistics
Read error : 0
Skipped (treated as error) : 0
Edge jitter error (maybe fixed) : 0
Atom jitter error (maybe fixed) : 0
Drift error (maybe fixed) : 0
Dropped bytes error (maybe fixed) : 0
Duplicated bytes error (maybe fixed) : 0
Inconsistency in error sectors : 0

Track 04
Filename : /Users/Shared/Bumblebee Unlimited – Sting Like A Bee (2000) [FLAC]/Bumblebee Unlimited – Sting Like a Bee (2000) [FLAC]/04 Space Shuttle Ride.flac
Pre-gap length : 00:02:45

Track gain : -0.66 dB
Peak : 0.935516
CRC32 hash (test run) : 45620863
CRC32 hash : 45620863
CRC32 hash (skip zero) : 03BCF4A2
AccurateRip signature : AEE2B69D
->Accurately ripped! (confidence 3)
Statistics
Read error : 0
Skipped (treated as error) : 0
Edge jitter error (maybe fixed) : 0
Atom jitter error (maybe fixed) : 0
Drift error (maybe fixed) : 0
Dropped bytes error (maybe fixed) : 0
Duplicated bytes error (maybe fixed) : 0
Inconsistency in error sectors : 0

Track 05
Filename : /Users/Shared/Bumblebee Unlimited – Sting Like A Bee (2000) [FLAC]/Bumblebee Unlimited – Sting Like a Bee (2000) [FLAC]/05 Honey Bunn.flac
Pre-gap length : 00:03:73

Track gain : 0.02 dB
Peak : 0.989044
CRC32 hash (test run) : 103BCC93
CRC32 hash : 103BCC93
CRC32 hash (skip zero) : ABD41780
AccurateRip signature : 12E74379
->Accurately ripped! (confidence 3)
Statistics
Read error : 0
Skipped (treated as error) : 0
Edge jitter error (maybe fixed) : 0
Atom jitter error (maybe fixed) : 0
Drift error (maybe fixed) : 0
Dropped bytes error (maybe fixed) : 0
Duplicated bytes error (maybe fixed) : 0
Inconsistency in error sectors : 0

Track 06
Filename : /Users/Shared/Bumblebee Unlimited – Sting Like A Bee (2000) [FLAC]/Bumblebee Unlimited – Sting Like a Bee (2000) [FLAC]/06 Love Bug.flac
Pre-gap length : 00:02:44

Track gain : 1.72 dB
Peak : 0.585846
CRC32 hash (test run) : 085E0B9D
CRC32 hash : 085E0B9D
CRC32 hash (skip zero) : 14FC1103
AccurateRip signature : 44060E05
->Accurately ripped! (confidence 3)
Statistics
Read error : 0
Skipped (treated as error) : 0
Edge jitter error (maybe fixed) : 1
Atom jitter error (maybe fixed) : 0
Drift error (maybe fixed) : 0
Dropped bytes error (maybe fixed) : 1
Duplicated bytes error (maybe fixed) : 0
Inconsistency in error sectors : 0

Track 07
Filename : /Users/Shared/Bumblebee Unlimited – Sting Like A Bee (2000) [FLAC]/Bumblebee Unlimited – Sting Like a Bee (2000) [FLAC]/07 Funk For Days.flac
Pre-gap length : 00:02:45

Track gain : -1.71 dB
Peak : 0.749603
CRC32 hash (test run) : 470721DC
CRC32 hash : 470721DC
CRC32 hash (skip zero) : F263067D
AccurateRip signature : 7CF14A61
->Accurately ripped! (confidence 3)
Statistics
Read error : 0
Skipped (treated as error) : 0
Edge jitter error (maybe fixed) : 0
Atom jitter error (maybe fixed) : 0
Drift error (maybe fixed) : 0
Dropped bytes error (maybe fixed) : 0
Duplicated bytes error (maybe fixed) : 0
Inconsistency in error sectors : 0

Track 08
Filename : /Users/Shared/Bumblebee Unlimited – Sting Like A Bee (2000) [FLAC]/Bumblebee Unlimited – Sting Like a Bee (2000) [FLAC]/08 Everybody Dance.flac
Pre-gap length : 00:02:45

Track gain : 1.04 dB
Peak : 0.730469
CRC32 hash (test run) : B51E9B52
CRC32 hash : B51E9B52
CRC32 hash (skip zero) : 7F198BB0
AccurateRip signature : 5A3642AD
->Accurately ripped! (confidence 3)
Statistics
Read error : 0
Skipped (treated as error) : 0
Edge jitter error (maybe fixed) : 0
Atom jitter error (maybe fixed) : 0
Drift error (maybe fixed) : 0
Dropped bytes error (maybe fixed) : 0
Duplicated bytes error (maybe fixed) : 0
Inconsistency in error sectors : 0

Track 09
Filename : /Users/Shared/Bumblebee Unlimited – Sting Like A Bee (2000) [FLAC]/Bumblebee Unlimited – Sting Like a Bee (2000) [FLAC]/09 Lady Bug (12" version).flac
Pre-gap length : 00:02:41

Track gain : -0.26 dB
Peak : 0.700897
CRC32 hash (test run) : 2D809656
CRC32 hash : 2D809656
CRC32 hash (skip zero) : 2F4AA0EF
AccurateRip signature : 60E4B952
->Accurately ripped! (confidence 3)
Statistics
Read error : 0
Skipped (treated as error) : 0
Edge jitter error (maybe fixed) : 0
Atom jitter error (maybe fixed) : 0
Drift error (maybe fixed) : 0
Dropped bytes error (maybe fixed) : 0
Duplicated bytes error (maybe fixed) : 0
Inconsistency in error sectors : 0

No errors occurred

End of status report

Tracklist:
1 I Got A Big Bee 7:47
2 Lady Bug 9:49
3 I Love You 8:04
4 Space Shuttle Ride 6:29
5 Honey Bunn 5:18
6 Love Bug 7:13
7 Funk For Days 4:04
8 Everybody Dance 8:22
9 Lady Bug (12" Mix) 8:45

Thanks to the original ripper

Bumblebee Unlimited – Sting Like A Bee (1979) [Reissue 2000] Download, Warez, DDL, Free, Full Album, Torrent, Legal.

Download