Budgie – Radio Sessions 1974 & 1978 (2005) [2CD] Re-up

Download
Budgie - Radio Sessions 1974 & 1978 (2005) [2CD] Re-up

Budgie – Radio Sessions 1974 & 1978 (2005) [2CD]
EAC Rip | FLAC: Image+Cue+Log | 816 Mb | MP3 CBR 320 kbps | 304 Mb | Scans | 43 Mb | TTime: 01:56:22
Noteworthy Productions | NP13
Hard Rock, Heavy Metal

"Radio Sessions 1974 & 1978" is a double live album by Welsh hard rock group Budgie. The album tracks were taken from two live concerts; one at the Global Village in London in 1974, the other in Los Angeles in 1978.

A companion to the 1972 BBC sessions collection, Radio Sessions 74 and 78 is, in fact, a recounting of two live shows, recorded at London’s Global Village and somewhere in L.A., respectively, and capturing Budgie initially at something approaching their peak and then some way away from it. Though it’s a mere four songs long, the London show is spectacular. With better than expected sound quality, it pinpoints the often manic experimentation with which Budgie approached their music – that is, titles as long as your arm (shame that only "You’re the Biggest Thing Since Powdered Milk" is present here) and solos that extend even further. Neither "Breadfan" nor "Zoom Club" have ever sounded better, and even the less than stellar "Hammer and Tongs" is not to be missed. The L.A. show is more problematic, partly because of a wacky mix, but also because Budgie were clearly sinking when it was taped, and touting a live set that reflected the band’s decline in fortunes. "In the Grip of a Tyre-Fitter’s Hand" and (arguably) "Breaking All the House Rules" notwithstanding, no true Budgie classics are on display; instead, the band is in solid riff-metal mode, as though volume could begin to replace the old ingenuity. Push aside what you would hope to hear at a Budgie show and there’s no denying either the energy on display or the enthusiasm of the audience. Ultimately, however, it’s the London show that you’ll be buying this for. The rest of the set is simply bonus material. ~ Review by Dave Thompson

Budgie - Radio Sessions 1974 & 1978 (2005) [2CD] Re-up
Budgie
Wikipedia | Allmusic
Budgie - Radio Sessions 1974 & 1978 (2005) [2CD] Re-up

Disc 1: London, 1974

01. Breadfan (6:06)
02. You Are The Biggest Thing Since Powdered Milk (8:17)
03. Hammer And Tongs (12:01)
04. Zoom Club (8:57)
05. Parents (8:38)
06. Rocking Man (9:22)

Budgie - Radio Sessions 1974 & 1978 (2005) [2CD] Re-up

Disc 2: Los Angeles, 1978

01. Melt The Ice Away (3:56)
02. In The Grip Of A Tyrefitter’s Hand (6:02)
03. Smile Boy Smile (4:20)
04. In For The Kill / You Are The Biggest Thing Since Powdered Milk (7:07)
05. Love For You And Me (4:08)
06. Parents (10:31)
07. Who Do You Want For Your Love (6:35)
08. Don’t Dilute The Water (6:13)
09. Breaking All The House Rules (6:33)
10. Breadfan (7:36)

Produced by Budgie

The Band

1974

• Burke Shelley: bass & vocals
• Tony Bourge: guitar & vocals
• Pete Boot: drums

1978

• Burke Shelley: bass & vocals
• Tony Bourge: guitar & vocals
• Steve Williams: drums

Notes

Re-mastered by Mike Brown at Original Sound

Budgie - Radio Sessions 1974 & 1978 (2005) [2CD] Re-up
EAC Log Disc 1
Exact Audio Copy V1.0 beta 3 from 29. August 2011

EAC extraction logfile from 3. August 2013, 21:54

Budgie / Radio Sessions 1974 & 1978

Used drive : Optiarc DVD-ROM DDU1675S Adapter: 3 ID: 0

Read mode : Secure
Utilize accurate stream : Yes
Defeat audio cache : Yes
Make use of C2 pointers : No

Read offset correction : 6
Overread into Lead-In and Lead-Out : No
Fill up missing offset samples with silence : Yes
Delete leading and trailing silent blocks : No
Null samples used in CRC calculations : Yes
Used interface : Native Win32 interface for Win NT & 2000

Used output format : User Defined Encoder
Selected bitrate : 1024 kBit/s
Quality : High
Add ID3 tag : No
Command line compressor : C:Program Files (x86)Exact Audio CopyFlacflac.exe
Additional command line options : -V -8 -T "Date=%year%" -T "Genre=%genre%" %source%

TOC of the extracted CD

Track | Start | Length | Start sector | End sector
––––––––––––––––––––––––––––-
1 | 0:00.00 | 6:06.27 | 0 | 27476
2 | 6:06.27 | 8:17.56 | 27477 | 64807
3 | 14:24.08 | 12:01.33 | 64808 | 118915
4 | 26:25.41 | 8:57.51 | 118916 | 159241
5 | 35:23.17 | 8:38.22 | 159242 | 198113
6 | 44:01.39 | 9:22.36 | 198114 | 240299

Range status and errors

Selected range

Filename F:# MYBudgie2005 – Radio Sessions 1974 & 1978 (Noteworthy Productions, NP13)CD-1 (London 1974)Budgie – Radio Sessions 1974 & 1978 (CD-1).wav

Peak level 100.0 %
Extraction speed 8.7 X
Range quality 100.0 %
Test CRC DB3D8C44
Copy CRC DB3D8C44
Copy OK

No errors occurred

AccurateRip summary

Track 1 accurately ripped (confidence 2) [A43595FD] (AR v2)
Track 2 accurately ripped (confidence 2) [625810C4] (AR v2)
Track 3 accurately ripped (confidence 2) [68261A5D] (AR v2)
Track 4 accurately ripped (confidence 2) [4DD6B88D] (AR v2)
Track 5 accurately ripped (confidence 2) [F4583E5D] (AR v2)
Track 6 accurately ripped (confidence 2) [74E34604] (AR v2)

All tracks accurately ripped

End of status report

==== Log checksum 0C6D7F314553598F65552CDE27FF0BA3D6099C8D3CB424E9024E7F62E676F381 ====

EAC Log Disc 2
Exact Audio Copy V1.0 beta 3 from 29. August 2011

EAC extraction logfile from 3. August 2013, 22:13

Budgie / Radio Sessions 1974 & 1978

Used drive : Optiarc DVD-ROM DDU1675S Adapter: 3 ID: 0

Read mode : Secure
Utilize accurate stream : Yes
Defeat audio cache : Yes
Make use of C2 pointers : No

Read offset correction : 6
Overread into Lead-In and Lead-Out : No
Fill up missing offset samples with silence : Yes
Delete leading and trailing silent blocks : No
Null samples used in CRC calculations : Yes
Used interface : Native Win32 interface for Win NT & 2000

Used output format : User Defined Encoder
Selected bitrate : 1024 kBit/s
Quality : High
Add ID3 tag : No
Command line compressor : C:Program Files (x86)Exact Audio CopyFlacflac.exe
Additional command line options : -V -8 -T "Date=%year%" -T "Genre=%genre%" %source%

TOC of the extracted CD

Track | Start | Length | Start sector | End sector
––––––––––––––––––––––––––––-
1 | 0:00.00 | 3:56.08 | 0 | 17707
2 | 3:56.08 | 6:02.13 | 17708 | 44870
3 | 9:58.21 | 4:20.45 | 44871 | 64415
4 | 14:18.66 | 7:07.58 | 64416 | 96498
5 | 21:26.49 | 4:08.45 | 96499 | 115143
6 | 25:35.19 | 10:31.13 | 115144 | 162481
7 | 36:06.32 | 6:35.50 | 162482 | 192156
8 | 42:42.07 | 6:13.02 | 192157 | 220133
9 | 48:55.09 | 6:33.00 | 220134 | 249608
10 | 55:28.09 | 7:36.56 | 249609 | 283864

Range status and errors

Selected range

Filename F:# MYBudgie2005 – Radio Sessions 1974 & 1978 (Noteworthy Productions, NP13)CD-2 (Los Angeles 1978)Budgie – Radio Sessions 1974 & 1978 (CD-2).wav

Peak level 95.3 %
Extraction speed 9.1 X
Range quality 100.0 %
Test CRC C4287023
Copy CRC C4287023
Copy OK

No errors occurred

AccurateRip summary

Track 1 accurately ripped (confidence 2) [234C8E73] (AR v2)
Track 2 accurately ripped (confidence 2) [B09E1A5F] (AR v2)
Track 3 accurately ripped (confidence 2) [B4773794] (AR v2)
Track 4 accurately ripped (confidence 2) [A775572D] (AR v2)
Track 5 accurately ripped (confidence 2) [A3F53743] (AR v2)
Track 6 accurately ripped (confidence 2) [806279D6] (AR v2)
Track 7 accurately ripped (confidence 2) [87092CD0] (AR v2)
Track 8 accurately ripped (confidence 2) [25CC0A86] (AR v2)
Track 9 accurately ripped (confidence 2) [240DB7DD] (AR v2)
Track 10 accurately ripped (confidence 2) [80A12F46] (AR v2)

All tracks accurately ripped

End of status report

==== Log checksum 676FD1383C4DF10751F385E3D82CA73D58ED28BED98AD5EE20B1291A6C98A8B9 ====

Many thanks to the original uploader: Ginger Devil

SEE also:
Budgie 1971 Budgie [Remastered 2004]
Budgie 1972 Squawk [Remastered 2004]
Budgie 1973 Never Turn Your Back On A Friend [Remastered 2004]
Budgie 1974 In For The Kill! [Remastered 2004]
Budgie 1975 Bandolier [Remastered 2004]
Budgie 1976 If I Were Brittania I’d Waive The Rules [Remastered 2010]
Budgie 1978 Impeckable [Remastered 2010]
Budgie 1980 If Swallowed, Do Not Induce Vomiting (EP) [Reissue 2012]
Budgie 1980 Power Supply [Remastered 2012]
Budgie 1981 Nightflight [Remastered 2013]
Budgie 2002 Life In San Antonio
Budgie 2004 The Last Stage
Budgie 2006 The BBC Recordings [2CD]
Budgie 2006 You’re All Living In Cuckooland

……
Welcome to My Blog for more wonderful music!
……

Budgie – Radio Sessions 1974 & 1978 (2005) [2CD] Re-up Download, Warez, DDL, Free, Full Album, Torrent, Legal.

Download