Brad Paisley – Time Well Wasted (2005) [HDCD]

Download
Brad Paisley - Time Well Wasted (2005) [HDCD]

Brad Paisley – Time Well Wasted (2005) [HDCD]
EAC Rip | FLAC (Img) + Cue + Log ~ 434 Mb | MP3 CBR320 ~ 158 Mb
Scans (JPG, 600 dpi) ~ 65 Mb | RAR 5% Recovery
Country, Country Rock, Folk Rock | Arista Nashville / Sony BMG Music #82876-69642-2

Time Well Wasted is the fourth studio album released by American country music artist Brad Paisley. It was released on August 16, 2005, on Arista Nashville. It was the Country Music Association’s Album of the Year for 2006. The album produced the singles "Alcohol", "When I Get Where I’m Going", "The World", and "She’s Everything". "Alcohol" was a number 4 hit on the Billboard Hot Country Songs charts, while the other three singles were all Number Ones.

~ Wiki

As anybody who follows country music knows, Brad Paisley is acknowledged among audiences and critics alike as the new traditionalist standard-bearer for the 2000s – the new guy that not only keeps the fire burning, but also rakes in the cash, having number one hits along with good reviews. He’s not big and brassy like Toby Keith; he’s the heir to George Strait, Randy Travis, and Alan Jackson, the guy who hails back to George Jones, Merle Haggard, and Buck Owens but is savvy enough not to play to overly serious Americana fans, the listeners who like their country music somber. That’s not Paisley – he may take his music seriously and will sing a serious ballad or two, but he also likes to crack wise and have a little fun. Although that’s certainly preferable to colorless alt-country singers, Paisley has been known to overdose on fun, favoring a cute turn of phrase or a knowing wink to his audience. Of course, humor has always played a big part in country – George Jones, one of Paisley’s heroes, made novelties his stock-in-trade – but there was a terminal cutesiness that threatened to overwhelm his otherwise excellent third album, Mud on the Tires. Thankfully, Paisley has reigned in this trait on its superb follow-up, 2005’s Time Well Wasted.

Paisley hasn’t suddenly become a humorless bore – how could he be when he persists on reviving the Grand Ole Opry’s old-fashioned cornpone radio plays, heard here on "Cornology," which, like "Spaghetti Western Swing" before it, features George Jones, Little Jimmy Dickens, and Bill Anderson and adds Dolly Parton for good measure (which naturally results in some silly boob jokes: "he turned around to see two huge 38s pointed right into his face"). The difference is, Paisley no longer leans hard on either his silly or sentimental streak, preferring to lay back and let everything flow naturally. That gives his already attractive music a greater appeal, since his humor is now sly and lived-in, a perfect match for his faithful but not dogmatic country. As should be expected by any deliberately traditionalist musician, there are no surprises, no left turns here – Paisley remains indebted not only to George, Merle, and Buck, but to how George Strait fused this holy trinity into a fresh yet familiar sound that encompassed the best of Bakersfield, Texas, and Nashville. Change can be overrated, particularly in regard to traditionalist music, and Paisley benefits from mining the same musical vein each time around. He’s turned into a genuine craftsman, both as a songwriter and musician, and now with four albums to his credit, he’s hitting his stride. His band sounds looser, warmer than it did on Mud on the Tires – and they’re given another dazzling showcase for their prowess on the frenzied "Time Warp," which is as delirious as prime Speedy West & Jimmy Bryant – and Paisley’s singing is relaxed and assured. These are welcome subtle improvements, but what makes Time Well Wasted Paisley’s best record yet is the writing. Song for song, this is his best set of tunes, whether it’s one of his ten originals or the sharply selected professionally written numbers that round out the album (these are highlighted by the sentimental but not saccharine ballad "Waitin’ on a Woman" and a duet with Alan Jackson on Guy Clark’s "Out in the Parkin’ Lot"). Although Paisley hasn’t abandoned goofy humor – indeed, "I’ll Take You Back" has mock crying built into its chorus, and a pivotal line in "Alcohol" concerns how it makes "white people dance" – this tendency is balanced by wittier jokes and his knack for keenly observed human nature, best heard in the savvy "Alcohol," but not isolated to that, either. It’s not just that the words are stronger, but the music is weathered and sturdy, sounding familiar on the first spin and getting stronger with each play. Each of Paisley’s prior albums gained stature with repetition, but Time Well Wasted is not only richer than his first three records, it’s more gripping upon its first play. Paradoxically, it demands attention partially because Paisley isn’t trying too hard to deliver a classic, nor is he working overtime to please his fans. Instead, he lays back and delivers his songs with the ease of an old pro, which means for the first time, he’s made a record that can hold its own next to his idols.

~ Stephen Thomas Erlewine, All Music
Official Website | Wiki | Discogs | All Music

***************

Brad Paisley - Time Well Wasted (2005) [HDCD]

Track List:

01. The World [0:04:01.49]
02. Alcohol [0:04:52.35]
03. Waitin’ on a Woman [0:04:32.50]
04. I’ll Take You Back [0:04:23.52]
05. She’s Everything [0:04:26.69]
06. You Need a Man Around Here [0:03:33.21]
07. Brad Paisley & Alan Jackson / Out in the Parkin’ Lot [0:04:43.44]
08. Rainin’ You [0:04:16.28]
09. Flowers [0:03:50.09]
10. Love is Never-Ending [0:03:58.56]
11. The Uncloudy Day [0:00:53.18]
12. Brad Paisley & Dolly Parton / When I Get Where I’m Going [0:04:08.20]
13. Easy Money [0:04:14.53]
14. Time Warp [0:03:56.21]
15. Time Well Wasted [0:03:56.05]
16. Brad Paisley with James Burton & The Kung Pao Buckaroos / Cornography [0:03:56.31]
17. Brad Paisley with James Burton & The Kung Pao Buckaroos / Outtake 1 [0:00:15.63]
18. Brad Paisley with James Burton & The Kung Pao Buckaroos / Outtake 2 [0:00:13.30]
19. Brad Paisley with James Burton & The Kung Pao Buckaroos / Outtake 3 [0:00:35.58]
20. Brad Paisley with James Burton & The Kung Pao Buckaroos / Outtake 4 [0:00:34.44]
21. Brad Paisley & William Shatner / Shatner Says Goodbye [0:00:27.12]

Personnel:
Brad Paisley – lead vocals, background vocals, electric guitar, acoustic guitar, baritone guitar, 12-string electric guitar, hi-string guitar, mandolin
Jim "Moose" Brown – piano, keyboards, Hammond organ, background vocals
James Burton – electric guitar on "Cornography"
Randel Currie – steel guitar
Eric Darken – percussion, vibraphone
Jerry Douglas – Dobro
Stuart Duncan – fiddle, mandolin
Kevin Grantt – bass guitar, tic tac bass, upright bass, background vocals
Bernie Herms – piano
Wes Hightower – background vocals
Gary Hooker – acoustic guitar, 12-string electric guitar, background vocals
Alan Jackson – vocals on "Out in the Parkin’ Lot"
Michael "Mike Dee" Johnson – Dobro, steel guitar
Kenny Lewis – bass guitar, background vocals
Kendal Marcy – banjo, background vocals
Dolly Parton – vocals on "When I Get Where I’m Going"
Ben Sesar – drums
William Shatner – vocals on "Shatner Says Goodbye"
Bryan Sutton – mandolin
Bobby Terry – bass guitar
Justin Williamson – fiddle

EAC Log
Exact Audio Copy V1.2 from 12. August 2016

EAC extraction logfile from 6. February 2017, 23:33

Brad Paisley / Time Well Wasted

Used drive : PLEXTOR DVDR PX-716A Adapter: 1 ID: 0

Read mode : Secure
Utilize accurate stream : Yes
Defeat audio cache : Yes
Make use of C2 pointers : No

Read offset correction : 30
Overread into Lead-In and Lead-Out : No
Fill up missing offset samples with silence : Yes
Delete leading and trailing silent blocks : No
Null samples used in CRC calculations : Yes
Used interface : Native Win32 interface for Win NT & 2000

Used output format : User Defined Encoder
Selected bitrate : 1024 kBit/s
Quality : High
Add ID3 tag : No
Command line compressor : C:Program Files (x86)Exact Audio CopyFLACFLAC.EXE
Additional command line options : -6 -V -T "ARTIST=%artist%" -T "TITLE=%title%" -T "ALBUM=%albumtitle%" -T "DATE=%year%" -T "TRACKNUMBER=%tracknr%" -T "GENRE=%genre%" -T "COMMENT=%comment%" -T "BAND=%albuminterpret%" -T "ALBUMARTIST=%albuminterpret%" -T "COMPOSER=%composer%" %haslyrics%–tag-from-file=LYRICS="%lyricsfile%"%haslyrics% -T "DISCNUMBER=%cdnumber%" -T "TOTALDISCS=%totalcds%" -T "TOTALTRACKS=%numtracks%" %hascover%–picture="%coverfile%"%hascover% %source% -o %dest%

TOC of the extracted CD

Track | Start | Length | Start sector | End sector
––––––––––––––––––––––––––––-
1 | 0:00.42 | 4:01.49 | 42 | 18165
2 | 4:02.16 | 4:52.35 | 18166 | 40100
3 | 8:54.51 | 4:32.50 | 40101 | 60550
4 | 13:27.26 | 4:23.52 | 60551 | 80327
5 | 17:51.03 | 4:26.69 | 80328 | 100346
6 | 22:17.72 | 3:33.21 | 100347 | 116342
7 | 25:51.18 | 4:43.44 | 116343 | 137611
8 | 30:34.62 | 4:16.28 | 137612 | 156839
9 | 34:51.15 | 3:50.09 | 156840 | 174098
10 | 38:41.24 | 3:58.56 | 174099 | 192004
11 | 42:40.05 | 0:53.18 | 192005 | 195997
12 | 43:33.23 | 4:08.20 | 195998 | 214617
13 | 47:41.43 | 4:14.53 | 214618 | 233720
14 | 51:56.21 | 3:56.21 | 233721 | 251441
15 | 55:52.42 | 3:56.05 | 251442 | 269146
16 | 59:48.47 | 3:56.31 | 269147 | 286877
17 | 63:45.03 | 0:15.63 | 286878 | 288065
18 | 64:00.66 | 0:13.30 | 288066 | 289070
19 | 64:14.21 | 0:35.58 | 289071 | 291753
20 | 64:50.04 | 0:34.44 | 291754 | 294347
21 | 65:24.48 | 0:27.12 | 294348 | 296384

Range status and errors

Selected range

Filename C:mmBrad Paisley2005 – Time Well Wasted [82876-69642-2]Brad Paisley – Time Well Wasted.wav

Peak level 98.7 %
Extraction speed 10.8 X
Range quality 99.9 %
Test CRC E28D3905
Copy CRC E28D3905
Copy OK

No errors occurred

AccurateRip summary

Track 1 accurately ripped (confidence 64) [17CC0921] (AR v2)
Track 2 accurately ripped (confidence 66) [F790DDD5] (AR v2)
Track 3 accurately ripped (confidence 67) [32656FF4] (AR v2)
Track 4 accurately ripped (confidence 66) [669FABD0] (AR v2)
Track 5 accurately ripped (confidence 65) [C0C4DC2F] (AR v2)
Track 6 accurately ripped (confidence 65) [615C2593] (AR v2)
Track 7 accurately ripped (confidence 64) [7424D34F] (AR v2)
Track 8 accurately ripped (confidence 66) [A43D698C] (AR v2)
Track 9 accurately ripped (confidence 63) [E4E3D001] (AR v2)
Track 10 accurately ripped (confidence 63) [204188B2] (AR v2)
Track 11 accurately ripped (confidence 64) [6866684F] (AR v2)
Track 12 accurately ripped (confidence 63) [59764D0B] (AR v2)
Track 13 accurately ripped (confidence 65) [E90FAEB7] (AR v2)
Track 14 accurately ripped (confidence 63) [79C55DD1] (AR v2)
Track 15 accurately ripped (confidence 63) [E7CE72D3] (AR v2)
Track 16 accurately ripped (confidence 62) [D3F04F55] (AR v2)
Track 17 accurately ripped (confidence 64) [0E78B19D] (AR v2)
Track 18 accurately ripped (confidence 65) [D0936F11] (AR v2)
Track 19 accurately ripped (confidence 64) [6CB3AFDC] (AR v2)
Track 20 accurately ripped (confidence 65) [4BDCEE51] (AR v2)
Track 21 accurately ripped (confidence 65) [EE7E62B0] (AR v2)

All tracks accurately ripped

End of status report

–– CUETools DB Plugin V2.1.6

[CTDB TOCID: 7U8sO9MF7_KZUshD85nCqp4bvZg-] found
Submit result: 7U8sO9MF7_KZUshD85nCqp4bvZg- has been confirmed
Track | CTDB Status
1 | (111/111) Accurately ripped
2 | (111/111) Accurately ripped
3 | (110/111) Accurately ripped
4 | (110/111) Accurately ripped
5 | (111/111) Accurately ripped
6 | (111/111) Accurately ripped
7 | (110/111) Accurately ripped
8 | (109/111) Accurately ripped
9 | (110/111) Accurately ripped
10 | (110/111) Accurately ripped
11 | (110/111) Accurately ripped
12 | (109/111) Accurately ripped
13 | (109/111) Accurately ripped
14 | (110/111) Accurately ripped
15 | (110/111) Accurately ripped
16 | (110/111) Accurately ripped
17 | (110/111) Accurately ripped
18 | (110/111) Accurately ripped
19 | (110/111) Accurately ripped
20 | (110/111) Accurately ripped
21 | (110/111) Accurately ripped

DR Log
foobar2000 1.2.6 / Dynamic Range Meter 1.1.1
log date: 2017-02-07 21:51:19

––––––––––––––––––––––––––––––––––––––––
Analyzed: Brad Paisley & Alan Jackson / Time Well Wasted (1)
Brad Paisley & Dolly Parton / Time Well Wasted (2)
Brad Paisley & William Shatner / Time Well Wasted (3)
––––––––––––––––––––––––––––––––––––––––

DR Peak RMS Duration Track
––––––––––––––––––––––––––––––––––––––––
DR8 -0.11 dB -10.03 dB 4:44 07-Out in the Parkin’ Lot
DR9 -0.11 dB -11.66 dB 4:08 12-When I Get Where I’m Going
DR15 -6.21 dB -26.91 dB 0:27 21-Shatner Says Goodbye
––––––––––––––––––––––––––––––––––––––––

Number of tracks: 3
Official DR value: DR11

Samplerate: 44100 Hz
Channels: 2
Bits per sample: 16
Bitrate: 878 kbps
Codec: FLAC
================================================================================

––––––––––––––––––––––––––––––––––––––––
Analyzed: Brad Paisley with James Burton & The Kung Pao Buckaroos / Time Well Wasted
––––––––––––––––––––––––––––––––––––––––

DR Peak RMS Duration Track
––––––––––––––––––––––––––––––––––––––––
DR10 -0.57 dB -13.62 dB 3:56 16-Cornography
DR14 -3.48 dB -22.39 dB 0:16 17-Outtake 1
DR12 -2.60 dB -22.83 dB 0:13 18-Outtake 2
DR15 -2.01 dB -21.54 dB 0:36 19-Outtake 3
DR13 -1.79 dB -19.03 dB 0:35 20-Outtake 4
––––––––––––––––––––––––––––––––––––––––

Number of tracks: 5
Official DR value: DR13

Samplerate: 44100 Hz
Channels: 2
Bits per sample: 16
Bitrate: 878 kbps
Codec: FLAC
================================================================================

––––––––––––––––––––––––––––––––––––––––
Analyzed: Brad Paisley / Time Well Wasted
––––––––––––––––––––––––––––––––––––––––

DR Peak RMS Duration Track
––––––––––––––––––––––––––––––––––––––––
DR7 -0.11 dB -8.29 dB 4:02 01-The World
DR6 -0.56 dB -8.51 dB 4:52 02-Alcohol
DR8 -0.11 dB -9.72 dB 4:33 03-Waitin’ on a Woman
DR7 -0.11 dB -8.88 dB 4:24 04-I’ll Take You Back
DR8 -0.11 dB -9.74 dB 4:27 05-She’s Everything
DR8 -0.18 dB -9.36 dB 3:33 06-You Need a Man Around Here
DR9 -0.11 dB -12.79 dB 4:16 08-Rainin’ You
DR9 -0.62 dB -11.00 dB 3:50 09-Flowers
DR9 -0.11 dB -11.30 dB 3:59 10-Love is Never-Ending
DR11 -4.03 dB -18.54 dB 0:53 11-The Uncloudy Day
DR9 -0.11 dB -10.82 dB 4:15 13-Easy Money
DR8 -0.11 dB -9.75 dB 3:56 14-Time Warp
DR9 -0.11 dB -10.48 dB 3:56 15-Time Well Wasted
––––––––––––––––––––––––––––––––––––––––

Number of tracks: 13
Official DR value: DR8

Samplerate: 44100 Hz
Channels: 2
Bits per sample: 16
Bitrate: 878 kbps
Codec: FLAC
================================================================================

CUETools Log
[CUETools log; Date: 07.02.2017 21:51:47; Version: 2.1.5]
Pregap length 00:00:42.
[CTDB TOCID: 7U8sO9MF7_KZUshD85nCqp4bvZg-] found.
Track | CTDB Status
1 | (112/112) Accurately ripped
2 | (112/112) Accurately ripped
3 | (111/112) Accurately ripped
4 | (111/112) Accurately ripped
5 | (112/112) Accurately ripped
6 | (112/112) Accurately ripped
7 | (111/112) Accurately ripped
8 | (110/112) Accurately ripped
9 | (111/112) Accurately ripped
10 | (111/112) Accurately ripped
11 | (111/112) Accurately ripped
12 | (110/112) Accurately ripped
13 | (110/112) Accurately ripped
14 | (111/112) Accurately ripped
15 | (111/112) Accurately ripped
16 | (111/112) Accurately ripped
17 | (111/112) Accurately ripped
18 | (111/112) Accurately ripped
19 | (111/112) Accurately ripped
20 | (111/112) Accurately ripped
21 | (111/112) Accurately ripped
[AccurateRip ID: 003cd996-0386ccd8-410f6f15] found.
Track [ CRC | V2 ] Status
01 [d859ff44|17cc0921] (072+064/279) Accurately ripped
02 [4e690fef|f790ddd5] (072+066/279) Accurately ripped
03 [efdb38b2|32656ff4] (070+067/278) Accurately ripped
04 [efb00565|669fabd0] (071+066/277) Accurately ripped
05 [1c52e524|c0c4dc2f] (071+065/272) Accurately ripped
06 [e23ba134|615c2593] (070+065/270) Accurately ripped
07 [12d4dab1|7424d34f] (069+064/270) Accurately ripped
08 [c91963ba|a43d698c] (070+066/275) Accurately ripped
09 [984be6ea|e4e3d001] (070+063/271) Accurately ripped
10 [f02d6f33|204188b2] (071+063/272) Accurately ripped
11 [bd82acd5|6866684f] (070+064/274) Accurately ripped
12 [da953c79|59764d0b] (068+063/270) Accurately ripped
13 [aaa17518|e90faeb7] (068+065/273) Accurately ripped
14 [7dcacb39|79c55dd1] (069+063/272) Accurately ripped
15 [7afe4178|e7ce72d3] (068+063/271) Accurately ripped
16 [2febef53|d3f04f55] (065+062/264) Accurately ripped
17 [582ab54b|0e78b19d] (062+064/252) Accurately ripped
18 [8571ccf8|d0936f11] (061+065/252) Accurately ripped
19 [a61a9aa0|6cb3afdc] (061+064/251) Accurately ripped
20 [4116adb7|4bdcee51] (062+065/254) Accurately ripped
21 [ded0816e|ee7e62b0] (060+065/251) Accurately ripped
Offsetted by -664:
01 [ed2e96fe] (029/279) Accurately ripped
02 [24af2954] (030/279) Accurately ripped
03 [a4680b0e] (029/278) Accurately ripped
04 [c17381ce] (028/277) Accurately ripped
05 [9fccf316] (028/272) Accurately ripped
06 [1aaa3718] (028/270) Accurately ripped
07 [c450a0ba] (028/270) Accurately ripped
08 [f7805c59] (029/275) Accurately ripped
09 [0ce3c99c] (029/271) Accurately ripped
10 [4a915af7] (028/272) Accurately ripped
11 [0d4301fe] (029/274) Accurately ripped
12 [3ce82fdb] (029/270) Accurately ripped
13 [41ebabc3] (029/273) Accurately ripped
14 [6aea6a1a] (029/272) Accurately ripped
15 [aecc8b21] (029/271) Accurately ripped
16 [11e192ad] (028/264) Accurately ripped
17 [f01a877e] (028/252) Accurately ripped
18 [12778a64] (028/252) Accurately ripped
19 [18745162] (028/251) Accurately ripped
20 [213f2f48] (028/254) Accurately ripped
21 [2c6e31cf] (028/251) Accurately ripped
Offsetted by -646:
01 [050ef7c7] (004/279) Accurately ripped
02 [63c04355] (004/279) Accurately ripped
03 [63442f3d] (004/278) Accurately ripped
04 [635789a6] (005/277) Accurately ripped
05 [bad50381] (004/272) Accurately ripped
06 [3dde7bb9] (004/270) Accurately ripped
07 [8d52df84] (004/270) Accurately ripped
08 [c97d6737] (004/275) Accurately ripped
09 [1ae81142] (004/271) Accurately ripped
10 [04f02a80] (003/272) Accurately ripped
11 [649f7d7d] (004/274) Accurately ripped
12 [12b76e6a] (003/270) Accurately ripped
13 [419e27b6] (004/273) Accurately ripped
14 [91c52208] (004/272) Accurately ripped
15 [8a9dd152] (004/271) Accurately ripped
16 [0e554252] (004/264) Accurately ripped
17 [a6d933dc] (004/252) Accurately ripped
18 [71a63581] (004/252) Accurately ripped
19 [cb22f079] (004/251) Accurately ripped
20 [a8f7fe61] (005/254) Accurately ripped
21 [85a55ed6] (005/251) Accurately ripped
Offsetted by -80:
01 [adaed916] (016/279) Accurately ripped
02 [e701e0c8] (016/279) Accurately ripped
03 [8171eb52] (016/278) Accurately ripped
04 [8642af98] (016/277) Accurately ripped
05 [7f33ad1a] (016/272) Accurately ripped
06 [2a55c977] (016/270) Accurately ripped
07 [d9654bfd] (016/270) Accurately ripped
08 [1725f8d7] (015/275) Accurately ripped
09 [04c3c02a] (016/271) Accurately ripped
10 [60b1c1a7] (016/272) Accurately ripped
11 [62d99cbd] (016/274) Accurately ripped
12 [8399de3d] (016/270) Accurately ripped
13 [756505da] (016/273) Accurately ripped
14 [9181b349] (016/272) Accurately ripped
15 [67ae22ad] (016/271) Accurately ripped
16 [720e0b67] (016/264) Accurately ripped
17 [d487964f] (014/252) Accurately ripped
18 [706673c4] (014/252) Accurately ripped
19 [4b1eb438] (014/251) Accurately ripped
20 [ba4cdb57] (014/254) Accurately ripped
21 [e6954da6] (014/251) Accurately ripped
Offsetted by 578:
01 [f5f22094] (012/279) Accurately ripped
02 [02944a6e] (012/279) Accurately ripped
03 [c5c94d2d] (012/278) Accurately ripped
04 [9cca9699] (012/277) Accurately ripped
05 [1472f75b] (012/272) Accurately ripped
06 [36a2afbb] (012/270) Accurately ripped
07 [da7c0e10] (012/270) Accurately ripped
08 [a8961a42] (012/275) Accurately ripped
09 [41d655d8] (012/271) Accurately ripped
10 [2c020e67] (012/272) Accurately ripped
11 [ff08d675] (012/274) Accurately ripped
12 [6dabc769] (012/270) Accurately ripped
13 [1ddfee4f] (012/273) Accurately ripped
14 [067c4e2e] (012/272) Accurately ripped
15 [156807b0] (012/271) Accurately ripped
16 [6429e486] (012/264) Accurately ripped
17 [e15f7f09] (011/252) Accurately ripped
18 [681eb8d7] (011/252) Accurately ripped
19 [b89fe689] (011/251) Accurately ripped
20 [38d1f631] (011/254) Accurately ripped
21 [c85e95e6] (011/251) Accurately ripped
Offsetted by 646:
01 [0aab9f01] (018/279) Accurately ripped
02 [5338d7f3] (017/279) Accurately ripped
03 [d789a411] (017/278) Accurately ripped
04 [2230e97b] (017/277) Accurately ripped
05 [d3815473] (015/272) Accurately ripped
06 [f76be594] (015/270) Accurately ripped
07 [f5ade513] (016/270) Accurately ripped
08 [d4578233] (016/275) Accurately ripped
09 [7da839d0] (016/271) Accurately ripped
10 [5c37cd68] (016/272) Accurately ripped
11 [8f5da1d2] (016/274) Accurately ripped
12 [2e8b4eb3] (015/270) Accurately ripped
13 [d7e4c11f] (016/273) Accurately ripped
14 [91e1a5d8] (016/272) Accurately ripped
15 [314cd5f6] (016/271) Accurately ripped
16 [d7742b03] (016/264) Accurately ripped
17 [26f1d3de] (014/252) Accurately ripped
18 [b7522c96] (014/252) Accurately ripped
19 [a8cd39c5] (015/251) Accurately ripped
20 [dd9e65b0] (015/254) Accurately ripped
21 [8cf11f75] (013/251) Accurately ripped
Offsetted by -66:
01 [b106843e] (002/279) Accurately ripped
02 [41855732] (002/279) Accurately ripped
03 [24ef5ea4] (002/278) Accurately ripped
04 [7c479c98] (002/277) Accurately ripped
05 [e1d6b426] (000/272) No match
06 [0dd104de] (000/270) No match
07 [7c065eef] (000/270) No match
08 [e0e6d36c] (002/275) Accurately ripped
09 [9dfa4bea] (002/271) Accurately ripped
10 [ebf2c4ab] (002/272) Accurately ripped
11 [7146b0dc] (002/274) Accurately ripped
12 [48346fe1] (002/270) Accurately ripped
13 [b68bba65] (002/273) Accurately ripped
14 [9410d38c] (002/272) Accurately ripped
15 [4d064da0] (002/271) Accurately ripped
16 [a6ba0fad] (002/264) Accurately ripped
17 [fd989d10] (002/252) Accurately ripped
18 [da7e3dbf] (002/252) Accurately ripped
19 [c1c0fde7] (002/251) Accurately ripped
20 [f551590a] (002/254) Accurately ripped
21 [bfe201bc] (002/251) Accurately ripped

Track Peak [ CRC32 ] [W/O NULL] [ LOG ]
– 98,7 [E28D3905] [6FCFE515] CRC32
01 98,6 [93BADC75] [0E88D84E]
02 93,7 [4C8E5CB9] [D0C472F1]
03 98,7 [9A910CC6] [3C99EF9C]
04 98,7 [2E9A24DA] [E08346A9]
05 98,7 [5C1540AD] [5B867B25]
06 97,9 [26F8BE69] [5B86BC25]
07 98,7 [2C9837A3] [6659976A]
08 98,7 [58A0E8C2] [6A6002D8]
09 93,0 [C4BFD4BC] [510D0573]
10 98,7 [CE2E0640] [356C48B0]
11 62,8 [D835213F] [CC1F3C2D]
12 98,7 [3365552E] [6A125350]
13 98,7 [34728F42] [E33EBE0B]
14 98,7 [2592CF04] [3330E47C]
15 98,7 [344EB3C0] [30CD4822]
16 93,7 [B3ED1C14] [06A75117]
17 67,0 [B2E4411E] [3F62340C]
18 74,1 [F9C7779E] [1071FFCC]
19 79,3 [AFCF9F7A] [FD762FC7]
20 81,3 [3CC12169] [3D51A0E0]
21 48,8 [A278C0AA] [49D98CBB]

Brad Paisley - Time Well Wasted (2005) [HDCD]

See also:
Brad Paisley – Mud On The Tires (2003) {HDCD}
Brad Paisley – Wheelhouse (2013) {Deluxe Edition}

All thanks go to sergych

> Visit my blog <

Brad Paisley – Time Well Wasted (2005) [HDCD] Download, Warez, DDL, Free, Full Album, Torrent, Legal.

Download