Bonnie Tyler: Collection (1977 – 1986) [Vinyl Rip 16/44 & mp3-320]

Download
Bonnie Tyler: Collection (1977 - 1986) [Vinyl Rip 16/44 & mp3-320]

Bonnie Tyler: Collection (1977 – 1986)
5 x Vinyl Rip 16/44 | Flac(Image + Cue) > 1376 Mb
MP3 CBR 320Kbps > 519 Mb | Artwork(jpg) > 165 Mb
RCA / RVC / Epic/Sony Inc.
Pop / Rock / Pop Rock

Before her well-known collaborations with Meat Loaf producer Jim Steinman, Welsh-born singer Bonnie Tyler (born Gaynor Hopkins) performed off and on in her homeland with the R&B band Mumbles; nodules on her vocal cords prevented her from singing full-time until 1976, when she underwent an operation to have them removed. The surgery left her with a raspy, husky voice that proved an effective instrument and drew notice from writer/producers Ronnie Scott and Steve Wolfe, who became her managers. Tyler scored a number three hit with their "It’s a Heartache" in 1978, but became dissatisfied as the two attempted to steer her into country music. When her contract ran out, she signed with CBS and sought Steinman out, hoping for material with his trademark epic sound. She got it with the ballad "Total Eclipse of the Heart," which was recorded with E Street Band members Max Weinberg on drums and Roy Bittan on keyboards, plus guitarist Rick Derringer and backing vocalist Rory Dodd. The song spent four weeks at number one on the Billboard charts and helped the LP Faster Than the Speed of Night sell over a million copies and debut at number one in the U.K., where the title track also became a hit.

Tyler then recorded "Holding Out for a Hero" for the blockbuster Footloose soundtrack, which to date has remained her last major success. She went on to work with Todd Rundgren and Desmond Child and recorded the European hit album Bitterblue in 1991 for a German label, which featured contributions from Nik Kershaw, Harold Faltermeyer, and Giorgio Moroder. In 1996, she released Free Spirit on Atlantic Records to little attention. With her popularity still high throughout Europe, Tyler continued to record albums, including 1999’s All in One Voice, 2004’s Simply Believe, and 2005’s Wings. In 2012, some seven years after her last release, Tyler announced that she was recording a new album in Nashville. The country-rock-inspired Rocks and Honey appeared in early 2013. Prior to the album’s release, Tyler also announced that she would be the U.K.’s entry in the 2013 Eurovision Song Contest.

by Steve Huey, allmusic

Bonnie Tyler: Collection (1977 - 1986) [Vinyl Rip 16/44 & mp3-320]

Bonnie Tyler: Collection (1977 – 1986) [Vinyl Rip 16/44 & mp3-320]:

Bonnie Tyler: Collection (1977 - 1986) [Vinyl Rip 16/44 & mp3-320]

Tracklist VNL01 – The World Starts Tonight:
UK LP 1977 RCA Victor • PL 25063

01.A1. Got So Used To Loving You [3:15]
02.A2. Love Of A Rolling Stone [3:25]
03.A3. Lost In France [3:51]
04.A4. Piece Of My Heart [3:40]
05.A5. More Than A Lover [4:14]
06.B1. Give Me Your Love [3:14]
07.B2. The World Starts Tonight [3:35]
08.B3. Here’s Monday [3:44]
09.B4. Love Tangle [3:13]
10.B5. Let The Show Begin [4:36]

DR Log
foobar2000 1.2.9 / Dynamic Range Meter 1.1.1
log date: 2016-12-22 02:21:39

––––––––––––––––––––––––––––––––––––––––
Analyzed: BONNIE TYLER / The World Starts Tonight (G.Britain, Victor, PL 25063)
––––––––––––––––––––––––––––––––––––––––

DR Peak RMS Duration Track
––––––––––––––––––––––––––––––––––––––––
DR13 -0.61 dB -16.15 dB 3:15 01-Got So Used To Loving You
DR13 -3.54 dB -21.69 dB 3:25 02-Love Of A Rolling Stone
DR12 -3.65 dB -17.49 dB 3:51 03-Lost In France
DR11 -4.24 dB -20.21 dB 3:40 04-Piece Of My Heart
DR13 -2.54 dB -17.91 dB 4:14 05-More Than A Lover
DR13 -2.45 dB -18.40 dB 3:14 06-Give Me Your Love
DR14 -1.05 dB -17.63 dB 3:35 07-The World Starts Tonight
DR14 -2.72 dB -20.13 dB 3:44 08-Here’s Monday
DR15 -0.19 dB -17.96 dB 3:13 09-Love Tangle
DR15 -1.78 dB -20.97 dB 4:36 10-Let The Show Begin
––––––––––––––––––––––––––––––––––––––––

Number of tracks: 10
Official DR value: DR13

Samplerate: 44100 Hz
Channels: 2
Bits per sample: 16
Bitrate: 754 kbps
Codec: FLAC
================================================================================

Bonnie Tyler: Collection (1977 - 1986) [Vinyl Rip 16/44 & mp3-320]

Tracklist VNL02 – It’s A Heartache:
JP LP 1978 RCA Records • RVP-6297

01.A1. It’s A Heartache [03:33]
02.A2. Blame Me [04:05]
03.A3. Living For The City [03:45]
04.A4. If I Sing You A Love Song [04:48]
05.A5. Heaven [03:10]
06.B1. Yesterday Dreams [04:16]
07.B2. Hey Love (It’s A Feelin’) [04:01]
08.B3. Natural Woman [03:07]
09.B4. Here Am I [03:52]
10.B5. Baby Goodnight [04:33]

DR Log
foobar2000 1.2.9 / Dynamic Range Meter 1.1.1
log date: 2016-12-22 02:21:52

––––––––––––––––––––––––––––––––––––––––
Analyzed: BONNIE TYLER / It’s A Heartache (Japan, RCA, RVP-6297)
––––––––––––––––––––––––––––––––––––––––

DR Peak RMS Duration Track
––––––––––––––––––––––––––––––––––––––––
DR12 -0.63 dB -14.36 dB 3:34 01-It’s A Heartache
DR14 -0.70 dB -18.00 dB 4:05 02-Blame Me
DR14 -0.72 dB -17.00 dB 3:45 03-Living For The City
DR13 -4.99 dB -21.91 dB 4:48 04-If I Sing You A Love Song
DR12 -2.36 dB -16.00 dB 3:10 05-Heaven
DR12 -1.92 dB -16.11 dB 4:16 06-Yesterday Dreams
DR14 -1.79 dB -18.38 dB 4:02 07-Hey Love (It’s A Feelin’)
DR13 -0.80 dB -16.97 dB 3:07 08-Natural Woman
DR13 -2.52 dB -17.22 dB 3:53 09-Here Am I
DR14 -3.69 dB -20.98 dB 4:34 10-Baby Goodnight
––––––––––––––––––––––––––––––––––––––––

Number of tracks: 10
Official DR value: DR13

Samplerate: 44100 Hz
Channels: 2
Bits per sample: 16
Bitrate: 831 kbps
Codec: FLAC
================================================================================

Bonnie Tyler: Collection (1977 - 1986) [Vinyl Rip 16/44 & mp3-320]

Tracklist VNL03 – Goodbye To The Island:
JP LP 1981 RCA Records • RPL-8019

01.A1. I’m Just A Woman [05:08]
02.A2. We Danced On The Ceiling [05:04]
03.A3. Wild Love [04:45]
04.A4. The Closer You Get [03:53]
05.A5. Sometimes When We Touch [04:20]
06.B1. Goodbye To The Island [03:19]
07.B2. Wild Side Of Life [03:48]
08.B3. Whiter Shade Of Pale [04:30]
09.B4. Sitting On Ther Edge Of The Ocean [03:26]
10.B5. I Believe In Your Sweet Love [03:36]

DR Log
foobar2000 1.2.9 / Dynamic Range Meter 1.1.1
log date: 2016-12-22 02:22:05

––––––––––––––––––––––––––––––––––––––––
Analyzed: BONNIE TYLER / Goodbye To The Island (Japan, RCA, RPL-8019)
––––––––––––––––––––––––––––––––––––––––

DR Peak RMS Duration Track
––––––––––––––––––––––––––––––––––––––––
DR14 -0.17 dB -15.84 dB 5:08 01-I’m Just A Woman
DR13 -2.16 dB -19.03 dB 5:05 02-We Danced On The Ceiling
DR12 -1.20 dB -17.65 dB 4:45 03-Wild Love
DR12 -2.09 dB -17.33 dB 3:53 04-The Closer You Get
DR13 -1.90 dB -19.29 dB 4:21 05-Sometimes When We Touch
DR12 -1.43 dB -15.67 dB 3:19 06-Goodbye To The Island
DR12 -0.73 dB -16.34 dB 3:48 07-Wild Side Of Life
DR13 -0.70 dB -17.05 dB 4:30 08-Whiter Shade Of Pale
DR13 -1.20 dB -16.22 dB 3:26 09-Sitting On Ther Edge Of The Ocean
DR12 -0.02 dB -14.53 dB 3:37 10-I Believe In Your Sweet Love
––––––––––––––––––––––––––––––––––––––––

Number of tracks: 10
Official DR value: DR13

Samplerate: 44100 Hz
Channels: 2
Bits per sample: 16
Bitrate: 775 kbps
Codec: FLAC
================================================================================

Bonnie Tyler: Collection (1977 - 1986) [Vinyl Rip 16/44 & mp3-320]

Tracklist VNL04 – Faster Than The Speed Of Night:
JP LP 1983 Epic-Sony Inc. • 25-3P-441

01.A1. Have You Ever Seen The Rain? [04:08]
02.A2. Faster Than The Speed Of Night [06:43]
03.A3. Getting So Excited [03:30]
04.A4. Total Eclipse Of The Heart [06:56]
05.B1. It’s A Jungle Out There [04:37]
06.B2. Going Through The Motions [04:07]
07.B3. Tears [03:48]
08.B4. Take Me Back [05:20]
09.B5. Straight From The Heart [03:43]

DR Log
foobar2000 1.2.9 / Dynamic Range Meter 1.1.1
log date: 2016-12-22 02:22:19

––––––––––––––––––––––––––––––––––––––––
Analyzed: BONNIE TYLER / Faster Than The Speed Of Night (Japan, Epic, 25•3P-441)
––––––––––––––––––––––––––––––––––––––––

DR Peak RMS Duration Track
––––––––––––––––––––––––––––––––––––––––
DR13 -2.40 dB -18.48 dB 4:08 01-Have You Ever Seen The Rain?
DR12 -1.43 dB -16.34 dB 6:44 02-Faster Than The Speed Of Night
DR14 -3.50 dB -19.40 dB 3:30 03-Getting So Excited
DR12 -3.69 dB -19.89 dB 6:57 04-Total Eclipse Of The Heart
DR15 -1.49 dB -18.28 dB 4:37 05-It’s A Jungle Out There
DR14 -1.42 dB -17.84 dB 4:07 06-Going Through The Motions
DR12 -2.34 dB -18.44 dB 3:48 07-Tears
DR12 -2.48 dB -16.79 dB 5:20 08-Take Me Back
DR11 -3.97 dB -18.24 dB 3:44 09-Straight From The Heart
––––––––––––––––––––––––––––––––––––––––

Number of tracks: 9
Official DR value: DR13

Samplerate: 44100 Hz
Channels: 2
Bits per sample: 16
Bitrate: 858 kbps
Codec: FLAC
================================================================================

Bonnie Tyler: Collection (1977 - 1986) [Vinyl Rip 16/44 & mp3-320]

Tracklist VNL05 – Secret Dreams And Forbidden Fire:
JP LP + EP 1986 Epic-Sony Inc. • 28-3P-733

01.A1. Ravishing [06:21]
02.A2. If You Were A Woman (And I Was A Man) [04:47]
03.A3. Loving You’s A Dirty Job But Somebody’s Gotta Do It [07:30]
04.A4. No Way To Treat A Lady [04:25]
05.B1. Band Of Gold [05:46]
06.B2. Rebel Without A Clue [08:38]
07.B3. Lovers Again [04:16]
08.B4. Holding Out For A Hero [04:50]

EP:
09.C1. If You Were A Woman (And I Was A Man) (Extended Version) [04:49]
10.D1. Straight From The Heart [03:43]
11.D2. Under Suspicion [04:23]

DR Log
foobar2000 1.2.9 / Dynamic Range Meter 1.1.1
log date: 2016-12-22 02:22:36

––––––––––––––––––––––––––––––––––––––––
Analyzed: BONNIE TYLER / Secret Dreams And Forbidden Fire (Japan, Epic, 28•3P-733)
––––––––––––––––––––––––––––––––––––––––

DR Peak RMS Duration Track
––––––––––––––––––––––––––––––––––––––––
DR12 -1.11 dB -15.09 dB 6:22 01-Ravishing
DR12 -2.95 dB -16.71 dB 4:47 02-If You Were A Woman (And I Was A Man)
DR12 -2.47 dB -17.17 dB 7:31 03-Loving You’s A Dirty Job But Somebody’s Gotta Do It
DR12 -0.12 dB -15.57 dB 4:25 04-No Way To Treat A Lady
DR12 -0.99 dB -15.54 dB 5:46 05-Band Of Gold
DR11 -1.46 dB -14.78 dB 8:39 06-Rebel Without A Clue
DR11 -2.67 dB -19.14 dB 4:16 07-Lovers Again
DR12 -2.62 dB -17.08 dB 4:50 08-Holding Out For A Hero
DR11 -0.89 dB -14.64 dB 4:49 09-If You Were A Woman (And I Was A Man) (Extended Version)*
DR12 -1.60 dB -16.55 dB 3:43 10-Straight From The Heart*
DR12 -1.66 dB -15.99 dB 4:23 11-Under Suspicion*
––––––––––––––––––––––––––––––––––––––––

Number of tracks: 11
Official DR value: DR12

Samplerate: 44100 Hz
Channels: 2
Bits per sample: 16
Bitrate: 964 kbps
Codec: FLAC
================================================================================

All thanks goes to asdfvl, alvaedis & KoGGaN

Sade: Discography (1984 – 2010) [Vinyl Rip 16/44 & MP3-320]

Queen: Collection (1973 – 1995) [Vinyl Rip 16/44 & MP3-320]

Metallica: Discography (1983 – 2016) [Vinyl Rip 16/44 & mp3-320]

The Doors: Collection (1967 – 1971) [Vinyl Rip 16/44 & mp3-320]

The Beatles: Discography (1963 – 1988) [Vinyl Rip 16/44 & mp3-320]

Joe Cocker: Collection (1969 – 1991) [Vinyl Rip 16/44 & mp3-320]

Dire Straits: Discography (1978 – 1991) [Vinyl Rip 16/44 & mp3-320]

Download Bonnie Tyler: Collection (1977 – 1986) [Vinyl Rip 16/44 & mp3-320]:

Bonnie Tyler: Collection (1977 – 1986) [Vinyl Rip 16/44 & mp3-320] Download, Warez, DDL, Free, Full Album, Torrent, Legal.

Tags:

  • bonnie tyler Sitting On The Edge Of The Ocean EP
  • bonnie tyler 1986 album torrent
  • bonnie tyler mp3 torrent free download
Download