Bon Jovi – Lost Highway (2007) | ViralVideoPk

Daily Dose of Free Downloads

Bon Jovi – Lost Highway (2007)

Download

Bon Jovi - Lost Highway (2007)

Bon Jovi – Lost Highway (2007)
EAC Rip | FLAC (Tracks) +CUE, LOG | 467 MB | Covers Included
Genre: Rock, Pop | Label: Island Records | Catalog Number: 00602517328082

Lost Highway is the tenth studio album by American rock band Bon Jovi. Produced by John Shanks and Dann Huff, the album was recorded at Black Bird Studios, Nashville and NGR Recording, Hollywood. The album influences the band’s rock sound with that of country music following the success of a country version of the band’s 2006 single "Who Says You Can’t Go Home", a duet with Jennifer Nettles, which reached No. 1 on the U.S. country chart in May 2006. Following the success had with the duet version of "Who Says You Can’t Go Home", there are two songs on the album produced in collaboration with other artists, namely "We Got It Going On" featuring Big & Rich and the single "Till We Ain’t Strangers Anymore" featuring LeAnn Rimes.

EAC Log
Exact Audio Copy V1.0 beta 6 from 9. April 2015

EAC extraction logfile from 3. January 2017, 19:22

Bon Jovi / Lost Highway

Used drive : PIONEER DVD-RW DVR-221L Adapter: 1 ID: 2

Read mode : Secure
Utilize accurate stream : Yes
Defeat audio cache : Yes
Make use of C2 pointers : No

Read offset correction : 6
Overread into Lead-In and Lead-Out : No
Fill up missing offset samples with silence : Yes
Delete leading and trailing silent blocks : No
Null samples used in CRC calculations : Yes
Used interface : Native Win32 interface for Win NT & 2000
Gap handling : Appended to previous track

Used output format : User Defined Encoder
Selected bitrate : 1024 kBit/s
Quality : High
Add ID3 tag : No
Command line compressor : C:Program Files (x86)Exact Audio CopyFLACFLAC.EXE
Additional command line options : -6 -V -T "COMMENT=Ripped by RRC (new-team org)" -T "ARTIST=%artist%" -T "TITLE=%title%" -T "ALBUM=%albumtitle%" -T "DATE=%year%" -T "TRACKNUMBER=%tracknr%" -T "GENRE=%genre%" -T "COMMENT=%comment%" -T "BAND=%albuminterpret%" -T "ALBUMARTIST=%albuminterpret%" -T "COMPOSER=%composer%" %haslyrics%–tag-from-file=LYRICS="%lyricsfile%"%haslyrics% -T "DISCNUMBER=%cdnumber%" -T "TOTALDISCS=%totalcds%" -T "TOTALTRACKS=%numtracks%" %hascover%–picture="%coverfile%"%hascover% %source% -o %dest%

TOC of the extracted CD

Track | Start | Length | Start sector | End sector
––––––––––––––––––––––––––––-
1 | 0:00.00 | 4:14.01 | 0 | 19050
2 | 4:14.01 | 3:18.65 | 19051 | 33965
3 | 7:32.66 | 4:37.61 | 33966 | 54801
4 | 12:10.52 | 4:17.47 | 54802 | 74123
5 | 16:28.24 | 4:13.36 | 74124 | 93134
6 | 20:41.60 | 4:03.57 | 93135 | 111416
7 | 24:45.42 | 4:23.31 | 111417 | 131172
8 | 29:08.73 | 4:13.14 | 131173 | 150161
9 | 33:22.12 | 4:44.59 | 150162 | 171520
10 | 38:06.71 | 3:33.15 | 171521 | 187510
11 | 41:40.11 | 3:37.49 | 187511 | 203834
12 | 45:17.60 | 4:38.07 | 203835 | 224691

Track 1

Filename G:RRC’s Rip (new-team org)1-Lost Highway.wav

Pre-gap length 0:00:02.00

Peak level 99.9 %
Extraction speed 4.5 X
Track quality 100.0 %
Test CRC 74241333
Copy CRC 74241333
Accurately ripped (confidence 200) [EE73215B] (AR v2)
Copy OK

Track 2

Filename G:RRC’s Rip (new-team org)2-Summertime.wav

Peak level 99.9 %
Extraction speed 3.8 X
Track quality 99.9 %
Test CRC FF5F26F4
Copy CRC FF5F26F4
Accurately ripped (confidence 200) [70EA1E0B] (AR v2)
Copy OK

Track 3

Filename G:RRC’s Rip (new-team org)3-(You Want to) Make a Memory.wav

Peak level 99.9 %
Extraction speed 5.4 X
Track quality 100.0 %
Test CRC F3D4C306
Copy CRC F3D4C306
Accurately ripped (confidence 200) [08FB94A0] (AR v2)
Copy OK

Track 4

Filename G:RRC’s Rip (new-team org)4-Whole Lot of Leavin’.wav

Pre-gap length 0:00:01.27

Peak level 99.9 %
Extraction speed 4.8 X
Track quality 99.9 %
Test CRC 832F5A4E
Copy CRC 832F5A4E
Accurately ripped (confidence 200) [85DCE46E] (AR v2)
Copy OK

Track 5

Filename G:RRC’s Rip (new-team org)5-We Got It Going On.wav

Peak level 99.9 %
Extraction speed 6.1 X
Track quality 100.0 %
Test CRC AD120827
Copy CRC AD120827
Accurately ripped (confidence 200) [2270179C] (AR v2)
Copy OK

Track 6

Filename G:RRC’s Rip (new-team org)6-Any Other Day.wav

Peak level 99.9 %
Extraction speed 6.5 X
Track quality 100.0 %
Test CRC EE270A1D
Copy CRC EE270A1D
Accurately ripped (confidence 200) [E98253E9] (AR v2)
Copy OK

Track 7

Filename G:RRC’s Rip (new-team org)7-Seat Next to You.wav

Pre-gap length 0:00:02.37

Peak level 99.9 %
Extraction speed 6.9 X
Track quality 100.0 %
Test CRC C071B809
Copy CRC C071B809
Accurately ripped (confidence 200) [59B645B1] (AR v2)
Copy OK

Track 8

Filename G:RRC’s Rip (new-team org)8-Everybody’s Broken.wav

Pre-gap length 0:00:01.59

Peak level 99.9 %
Extraction speed 7.1 X
Track quality 100.0 %
Test CRC 73C64F30
Copy CRC 73C64F30
Accurately ripped (confidence 200) [C019EBA1] (AR v2)
Copy OK

Track 9

Filename G:RRC’s Rip (new-team org)9-Till We Ain’t Strangers Anymore.wav

Pre-gap length 0:00:01.31

Peak level 99.9 %
Extraction speed 7.6 X
Track quality 100.0 %
Test CRC FC8C4CCE
Copy CRC FC8C4CCE
Accurately ripped (confidence 200) [9911B481] (AR v2)
Copy OK

Track 10

Filename G:RRC’s Rip (new-team org)10-The Last Night.wav

Pre-gap length 0:00:01.35

Peak level 99.9 %
Extraction speed 7.6 X
Track quality 100.0 %
Test CRC 26675A27
Copy CRC 26675A27
Accurately ripped (confidence 200) [72733F18] (AR v2)
Copy OK

Track 11

Filename G:RRC’s Rip (new-team org)11-One Step Closer.wav

Peak level 99.9 %
Extraction speed 7.8 X
Track quality 100.0 %
Test CRC 13837EF5
Copy CRC 13837EF5
Accurately ripped (confidence 200) [E3059938] (AR v2)
Copy OK

Track 12

Filename G:RRC’s Rip (new-team org)12-I Love This Town.wav

Pre-gap length 0:00:01.68

Peak level 99.9 %
Extraction speed 8.4 X
Track quality 100.0 %
Test CRC 08A0BCA6
Copy CRC 08A0BCA6
Accurately ripped (confidence 200) [A9C26BE6] (AR v2)
Copy OK

All tracks accurately ripped

No errors occurred

End of status report

–– CUETools DB Plugin V2.1.6

[CTDB TOCID: 2zT1b0k99kUIGn_sNLluM9jgagI-] found
Submit result: 2zT1b0k99kUIGn_sNLluM9jgagI- has been confirmed
Track | CTDB Status
1 | (527/529) Accurately ripped
2 | (527/529) Accurately ripped
3 | (528/529) Accurately ripped
4 | (528/529) Accurately ripped
5 | (528/529) Accurately ripped
6 | (527/529) Accurately ripped
7 | (525/529) Accurately ripped
8 | (525/529) Accurately ripped
9 | (526/529) Accurately ripped
10 | (526/529) Accurately ripped
11 | (527/529) Accurately ripped
12 | (523/529) Accurately ripped

==== Log checksum 34633743648F6765503D916ECF7EAA452AC92986EF683649CD0087042630F687 ====

Tracklist:
01. Lost Highway (4:13)
02. Summertime (3:17)
03. (You Want To) Make A Memory (4:36)
04. Whole Lot Of Leavin’ (4:16)
05. We Got It Going On (4:12)
06. Any Other Day (4:01)
07. Seat Next To You (4:21)
08. Everybody’s Broken (4:11)
09. Till We Ain’t Strangers Anymore (4:43)
10. The Last Night (3:32)
11. One Step Closer (3:35)
12. I Love This Town (4:37)

Bon Jovi – Lost Highway (2007) Download, Warez, DDL, Free, Full Album, Torrent, Legal.

Download


  • Recent Posts

  • Recent Tags