Bomg/Khola Cosmica – Split CD (2015)

Download
Bomg/Khola Cosmica - Split CD (2015)

Bomg/Khola Cosmica – Split CD (2015)
EAC Rip | FLAC, IMG+CUE+LOG | 500 MB | MP3 CBR 320 Kbps | 180 MB | Complete HQ Scans | PNG -> 60 MB
Doom Metal | Label: Voron Nest #VNCD0001 | RAR 3% Recovery

Today’s dose comes from Japan and Ukraine, where earlier this month two enigmatic bands split one hell of an incredible album. The first three tracks by Tokyo’s KHOLA COSMICA represent some of the most beautifully emotive instrumental doom metal on record. Khola Cosmica is Ryuhi Inari on guitar, Kensuke Suzuki on bass, and Futoshi Ohko on drums–with all three sharing vocals. This is their first release in 4 years, both now available on the new Voron Nest label, with art by Viktor Muhin.

There’s an uncanny sense of deja vu about “The Big Black,” as the first track’s recognizable theme is repeated time and again with slight variation and new layers of complexity.

The second track, “Decipher,” ventures into ambient territory after some wild, noisy psychedelic meandering that gets quite weird and loud, before settling on a conclusion.

By the time track three (“Kojo”) arrives, we’re squarely back in doom territory, with thick, crushing chords and fuzzy, crunchy, low-tuned stomping. All three pieces make a very nice continuum, working together not unlike a classical sonata.

If “cosmic doom” sums up the first band on the split, then I dub the Ukrainian BOMG’s style to be “ancient tribal war-cry doom.” Turn “Herbivore-Carnivore” up all the way to 11 and you’ll be doing more than shaking the pictures off your flatmate’s wall; you’ll be having all the good people of your apartment complex convinced that the end is nigh. Even more so in the closing minutes, which turn into an unexpected, frenetic march (with some redemptive, Sleep-like sections that made me like this 30-minute behemoth all the more). I’ll be definitely seeking out more from the Kiev-based four-piece band in the future.

A strange and satisfying record, strongly recommended for the audiophile doom and drone lover’s collection. Props to Voron Nest for putting this out there. The Goate is well pleased, indeed.

Tracklist :

1. Khola Cosmica – The Big Black 10:10
2. Khola Cosmica – Decipher 15:20
3. Khola Cosmica – Kojo 8:05
4. BOMG – Herbivore-Carnivore 29:42

EAC extraction logfile
Exact Audio Copy V1.0 beta 3 from 29. August 2011

EAC extraction logfile from 14. March 2015, 12:07

Bomg – Khola Cosmica / Split Album

Used drive : PIONEER DVD-RW DVR-219L Adapter: 1 ID: 0

Read mode : Secure
Utilize accurate stream : Yes
Defeat audio cache : Yes
Make use of C2 pointers : No

Read offset correction : 6
Overread into Lead-In and Lead-Out : No
Fill up missing offset samples with silence : Yes
Delete leading and trailing silent blocks : No
Null samples used in CRC calculations : Yes
Used interface : Native Win32 interface for Win NT & 2000

Used output format : Internal WAV Routines
Sample format : 44.100 Hz; 16 Bit; Stereo

TOC of the extracted CD

Track | Start | Length | Start sector | End sector
––––––––––––––––––––––––––––-
1 | 0:00.00 | 10:09.41 | 0 | 45715
2 | 10:09.41 | 15:20.14 | 45716 | 114729
3 | 25:29.55 | 8:05.26 | 114730 | 151130
4 | 33:35.06 | 29:41.54 | 151131 | 284759

Range status and errors

Selected range

Filename D:.www.AvaxHome.ruBomg – Khola Cosmica – Split Album.wav

Peak level 100.0 %
Extraction speed 7.0 X
Range quality 99.9 %
Test CRC 3CD5A5B1
Copy CRC 3CD5A5B1
Copy OK

No errors occurred

AccurateRip summary

Track 1 not present in database
Track 2 not present in database
Track 3 not present in database
Track 4 not present in database

None of the tracks are present in the AccurateRip database

End of status report

–– CUETools DB Plugin V2.1.4

[CTDB TOCID: p87x.jtxhhAPEs.6Oqw6QQIuJEQ-] disk not present in database
Submit result: p87x.jtxhhAPEs.6Oqw6QQIuJEQ- has been uploaded

==== Log checksum F7B4B5C853621A03C2901160734BCBFD3FDB731C278360D9EABA9C25475E5025 ====

Bomg/Khola Cosmica – Split CD (2015) Download, Warez, DDL, Free, Full Album, Torrent, Legal.

Download