Bobby Timmons – The Soul Man! (1966) {Prestige}

Download
Bobby Timmons - The Soul Man! (1966) {Prestige}

Bobby Timmons – The Soul Man! (1966) {Prestige}
EAC 0.95b2 | FLAC Image | Cue+Log | Full Scans 300dpi | 243MB + 5% Recovery
MP3 CBR 320 Kbps | 95MB + 5% Recovery
Genre: Hard Bop

The Soul Man! is beautiful, elegant music and, contrary to what one might expect from a straightforward Prestige session, it’s made up entirely of compelling, memorable originals. When the album was recorded, both Wayne Shorter and Ron Carter were in the second Miles Davis quintet, and it appears from this record that they were willing to contribute original compositions for a smaller unit under someone else’s leadership, even someone as modest as Bobby Timmons, who was essentially just a reliable, bluesy pianist, while Miles was a giant. The result actually is a small gem. Shorter is at the height of his maturity as a player, delivering eloquent, lyrical statements in that rich, confident tone, while Timmons lays down solos as witty as he ever played with Art Blakey’s Jazz Messengers, the "school" that gave him (and Shorter, incidentally) an assured place in the business.

Track List
1. Cut Me Loose Charlie (Bobby Timmons) 5:46
2. Tom Thumb (Wayne Shorter) 7:08
3. Ein Bahn Strasse (One Way Street) (Ron Carter) 7:23
4. Damned If I Know (Bobby Timmons) 6:33
5. Tenaj (Ron Carter) 7:08
6. Little Waltz (Ron Carter) 6:40

musicians
Bobby Timmons – piano
Wayne Shorter – tenor sax
Ron Carter – bass
Jimmy Cobb – drums

Produced by Cal Lampley

EAC
EAC extraction logfile from 21. July 2005, 15:19 for CD
Bobby Timmons / The Soul Man!

Used drive : HL-DT-STDVDRAM GSA-4163B Adapter: 1 ID: 1
Read mode : Secure with C2, accurate stream, NO disable cache
Combined read/write offset correction : 0
Overread into Lead-In and Lead-Out : No

Used output format : Internal WAV Routines
44.100 Hz; 16 Bit; Stereo

Other options :
Fill up missing offset samples with silence : Yes
Delete leading and trailing silent blocks : No
Installed external ASPI interface

Range status and errors
Selected range
Filename F:JazzivonewrelCDImage.wav

Peak level 100.0 %
Range quality 100.0 %
CRC 510E3EE4
Copy OK

No errors occured

End of status report

Dynamic
––––––––––––––––––––––––––––––––––––––––
Analyzed: Bobby Timmons / The Soul Man!
––––––––––––––––––––––––––––––––––––––––

DR Peak RMS Duration Track
––––––––––––––––––––––––––––––––––––––––
DR12 -2.35 dB -16.98 dB 5:47 01-Cut Me Loose Charly
DR12 0.00 dB -15.77 dB 7:09 02-Tom Thumb
DR13 0.00 dB -17.58 dB 7:23 03-One Way Street
DR12 0.00 dB -15.73 dB 6:32 04-Damned If I Know
DR12 0.00 dB -17.69 dB 7:08 05-Tenaj
DR13 -3.79 dB -21.72 dB 6:37 06-Little Waltz
––––––––––––––––––––––––––––––––––––––––

Number of tracks: 6
Official DR value: DR12

Samplerate: 44100 Hz
Channels: 2
Bits per sample: 16
Bitrate: 834 kbps
Codec: FLAC
================================================================================

Bobby Timmons - The Soul Man! (1966) {Prestige}
Bobby Timmons - The Soul Man! (1966) {Prestige}
Bobby Timmons - The Soul Man! (1966) {Prestige}
Thanks to the original ripper

Bobby Timmons – The Soul Man! (1966) {Prestige} Download, Warez, DDL, Free, Full Album, Torrent, Legal.

Download