Bobby Previte & Bump – Counterclockwise (2003) {Palmetto PM 2091}

Download
Bobby Previte & Bump - Counterclockwise (2003) {Palmetto PM 2091}

Bobby Previte & Bump – Counterclockwise (2003) {Palmetto PM 2091}
EAC rip (secure mode) | FLAC (tracks)+CUE+LOG -> 341 Mb | MP3 @320 -> 117 Mb
Full Artwork @ 300 dpi (jpg) -> 13 Mb | 5% repair rar
© 2003 Palmetto Records | PM 2091
Jazz / Modern Postbebop / Soul Jazz / Experimental / Modern Creative

Bobby Previte’s Bump has the same instrumentation as the Jazz Crusaders (tenor saxophonist Marty Ehrlich, trombonist Curtis Fowlkes, keyboardist Wayne Horvitz, electric bassist Steve Swallow, and Previte on drums), but sounds nothing at all like that soul-jazz band. This set features five forward-thinking players whose solos and ensemble work are full of adventure, wit, and unpredictability. The nine uncredited originals, which are probably by Previte, are generally rhythmic and sometimes funky, with brief melodies and an emphasis on group playing.

Horvitz and Swallow work particularly well together, Fowlkes is often rambunctious, and it is interesting to hear Ehrlich (who elsewhere often plays clarinet, bass clarinet, soprano, and alto) concentrating exclusively on tenor. Since the pieces are percussive, Previte’s playing behind the other musicians often reminds one of the themes. The performances certainly keep one guessing but, due to the high musicianship, the creativity of the players, and their empathy for each other’s playing, there are no slow moments. Counterclockwise is highly recommended to adventurous listeners.

Bobby Previte & Bump - Counterclockwise (2003) {Palmetto PM 2091}

AAJ INFO

Personnel:
Bobby Previte – drums
Steve Swallow – electric bass
Wayne Horvitz – piano
Marty Ehrlich – tenor saxophone
Curtis Fowlkes – trombone
Timothy Young – guitar (#9)

tracklist:
01 – 877-Soul
02 – Counterclockwise
03 – 614-Soul
04 – Bobby’s Next Mood
05 – 111-Soul
06 – Patricia
07 – 312-Soul
08 – And the Wind Cries… Mademoiselle Katherine
09 – 498-Soul

EAC log
Exact Audio Copy V1.0 beta 3 from 29. August 2011

EAC extraction logfile from 11. May 2014, 15:08

Bobby Previte / Counterclockwise

Used drive : SONY DVD RW DRU-810A Adapter: 1 ID: 0

Read mode : Secure
Utilize accurate stream : Yes
Defeat audio cache : Yes
Make use of C2 pointers : No

Read offset correction : 618
Overread into Lead-In and Lead-Out : No
Fill up missing offset samples with silence : Yes
Delete leading and trailing silent blocks : No
Null samples used in CRC calculations : Yes
Used interface : Native Win32 interface for Win NT & 2000
Gap handling : Appended to previous track

Used output format : User Defined Encoder
Selected bitrate : 128 kBit/s
Quality : High
Add ID3 tag : No
Command line compressor : C:Program Files (x86)Exact Audio CopyFlacflac.exe
Additional command line options : -8 -V -T "ARTIST=%artist%" -T "TITLE=%title%" -T "ALBUM=%albumtitle%" -T "DATE=%year%" -T "TRACKNUMBER=%tracknr%" -T "TOTALTRACKS=%numtracks%" -T "GENRE=%genre%" -T "ALBUMARTIST=%albumartist%" -T "ALBUM ARTIST=%albumartist%" -T "COMMENT=EAC Secure Mode, Test & Copy, AccurateRip, FLAC -8" %source%

TOC of the extracted CD

Track | Start | Length | Start sector | End sector
––––––––––––––––––––––––––––-
1 | 0:00.00 | 5:14.55 | 0 | 23604
2 | 5:14.55 | 4:48.43 | 23605 | 45247
3 | 10:03.23 | 3:22.61 | 45248 | 60458
4 | 13:26.09 | 8:10.13 | 60459 | 97221
5 | 21:36.22 | 4:24.05 | 97222 | 117026
6 | 26:00.27 | 7:25.07 | 117027 | 150408
7 | 33:25.34 | 3:33.49 | 150409 | 166432
8 | 36:59.08 | 5:27.16 | 166433 | 190973
9 | 42:26.24 | 10:02.11 | 190974 | 236134

Track 1

Filename F:New RipsBobby Previte – Counterclockwise (2003) [FLAC]1 – 877-Soul.wav

Pre-gap length 0:00:02.00

Peak level 98.8 %
Extraction speed 4.0 X
Track quality 99.9 %
Test CRC A728FA09
Copy CRC A728FA09
Accurately ripped (confidence 6) [A39FE3EF] (AR v2)
Copy OK

Track 2

Filename F:New RipsBobby Previte – Counterclockwise (2003) [FLAC]2 – Counterclockwise.wav

Peak level 98.8 %
Extraction speed 5.1 X
Track quality 100.0 %
Test CRC D77A87A2
Copy CRC D77A87A2
Accurately ripped (confidence 6) [BD75C3D0] (AR v2)
Copy OK

Track 3

Filename F:New RipsBobby Previte – Counterclockwise (2003) [FLAC]3 – 614-Soul.wav

Pre-gap length 0:00:01.22

Peak level 98.8 %
Extraction speed 4.4 X
Track quality 99.9 %
Test CRC E039A9E3
Copy CRC E039A9E3
Accurately ripped (confidence 5) [A9038A91] (AR v2)
Copy OK

Track 4

Filename F:New RipsBobby Previte – Counterclockwise (2003) [FLAC]4 – Bobby’s Next Mood.wav

Peak level 98.8 %
Extraction speed 6.4 X
Track quality 100.0 %
Test CRC DE724CDD
Copy CRC DE724CDD
Accurately ripped (confidence 6) [F3B18A43] (AR v2)
Copy OK

Track 5

Filename F:New RipsBobby Previte – Counterclockwise (2003) [FLAC]5 – 111-Soul.wav

Pre-gap length 0:00:04.01

Peak level 98.8 %
Extraction speed 6.5 X
Track quality 100.0 %
Test CRC CDB6AB6D
Copy CRC CDB6AB6D
Accurately ripped (confidence 6) [ECC34988] (AR v2)
Copy OK

Track 6

Filename F:New RipsBobby Previte – Counterclockwise (2003) [FLAC]6 – Patricia.wav

Pre-gap length 0:00:04.61

Peak level 98.8 %
Extraction speed 7.3 X
Track quality 100.0 %
Test CRC F9C484C7
Copy CRC F9C484C7
Accurately ripped (confidence 6) [7FEDB8E9] (AR v2)
Copy OK

Track 7

Filename F:New RipsBobby Previte – Counterclockwise (2003) [FLAC]7 – 312-Soul.wav

Pre-gap length 0:00:04.63

Peak level 98.8 %
Extraction speed 7.1 X
Track quality 100.0 %
Test CRC 4BFB998B
Copy CRC 4BFB998B
Accurately ripped (confidence 6) [15C6A824] (AR v2)
Copy OK

Track 8

Filename F:New RipsBobby Previte – Counterclockwise (2003) [FLAC]8 – And the Wind Cries–-Mademoiselle Katherine.wav

Pre-gap length 0:00:02.22

Peak level 98.8 %
Extraction speed 7.8 X
Track quality 100.0 %
Test CRC 95C96F37
Copy CRC 95C96F37
Accurately ripped (confidence 6) [C457404C] (AR v2)
Copy OK

Track 9

Filename F:New RipsBobby Previte – Counterclockwise (2003) [FLAC]9 – 498-Soul.wav

Pre-gap length 0:00:21.04

Peak level 98.8 %
Extraction speed 8.6 X
Track quality 100.0 %
Test CRC 4340E610
Copy CRC 4340E610
Accurately ripped (confidence 6) [3786CB25] (AR v2)
Copy OK

All tracks accurately ripped

No errors occurred

End of status report

–– CUETools DB Plugin V2.1.3

[CTDB TOCID: Kps3x4Dy54q.ExjiUtdqUupaqw4-] found, Submit result: Kps3x4Dy54q.ExjiUtdqUupaqw4- has been confirmed
[20e03a00] (10/10) Accurately ripped

==== Log checksum B40F31B4EC2E0D7C0191C95408DFCF070B1A27FAAF6C20741E035E05D67C1381 ====

Bobby Previte & Bump - Counterclockwise (2003) {Palmetto PM 2091}

Bobby Previte & Bump - Counterclockwise (2003) {Palmetto PM 2091}

All thanks goes to the original releaser!

see also:
Charlie Hunter and Bobby Previte as Groundtruther + special guest John Medesky – Altitude (2007) {2CDs Thirsty Ear}

===

Bobby Previte & Bump – Counterclockwise (2003) {Palmetto PM 2091} Download, Warez, DDL, Free, Full Album, Torrent, Legal.

Download