Bobby "O" – Freedom In An Unfree World (1983) [2017, Remastered & Expanded Edition]

Download
Bobby "O" - Freedom In An Unfree World (1983) [2017, Remastered & Expanded Edition]

Bobby "O" – Freedom In An Unfree World (1983) [2017, Remastered & Expanded Edition]
Pop, Hi NRG, Electronic, Synth-pop | EAC Rip | FLAC, Tracks+CUE+LOG+Scans (JPEG) | 60:24 Min | 652,62 Mb
Label: Cherry Pop (UK) | Cat.# CRPOP184 | Released: 2017-04-28 (1983)

Bobby Orlando is a highly prolific music producer, songwriter, musician, and record label impresario. During the 80’s he produced, composed and performed on hundreds of music productions that he released under a myriad of record labels, including: “O” Records, Bobcat Records, Memo Records and others. He is one of the founding fathers of Hi-NRG dance music. Orlando is a multi-instrumentalist and the cowbell percussion lines and robotic sequencers heard on “She Has A Way”, his debut single, defines his trademark sound. . As a solo artist, Orlando scored hits with tracks ‘She Has a Way’, ‘How To Pick Up Girls’, and ‘I’m So Hot for You’. He also produced the early hit singles for numerous artists including Divine (Native Love), Pet Shop Boys (West End Girls) and The Flirts (Passion) amongst many others. Bobby’s debut album, “Freedom In An Unfree World” was issued in 1983 and secured his place at the forefront of the HI-NRG movement. The album is extremely sought after but has been out of print for more than twenty years. Cherry Pop’s new edition features a remastered edition of the original album as well as five bonus tracks that include the original 12″ single remixes of his early hit singles. . Cherry Pop is proud to present the definitive expanded edition of FREEDOM IN AN UNFREE WORLD which is an essential addition to the collection of all Eighties Pop and Dance fans.

~Amazon UK
Bobby "O" - Freedom In An Unfree World (1983) [2017, Remastered & Expanded Edition]

Bobby "O" - Freedom In An Unfree World (1983) [2017, Remastered & Expanded Edition]

Release of the album: 1983 [LP Metronome, Cat.# 817 043-1, Germany]
Release of this CD: 2017, April, 28 [CD Cherry Pop (UK), Cat.# CRPOP184 / UPC: 5013929438484]
Note: Remastered Reissue with 5 bonus tracks.
Originally Released on "O" Records
℗ 1983, 1982 "O" Records and Visuals
© 2017 Avex Group – Japan
Under licence from High Fashion Music B.V. Hilversum – The Netherlands,
by arrangement with The Licensing Partnership UK Ltd.
© 2017 Cherry Pop Records.
Marketed and Distributed by Cherry Pop Records
Made in EU/MCPS

Credits:

Photography By – Patrick Grafiek, Belgium
Producer, Arranged By, Synthesizer, Computer, Written-By, Performer [All Instruments] – Bobby Orlando
Recorded By – Steve Jerome

Tracklist:

01. I Cry For You (05:14)
02. How To Pick Up Girls (04:03)
03. All People Are The Same (03:35)
04. These Lies (04:16)
05. Givin’ Up (05:29)
06. Reputation (04:37)
07. German Girl (03:31)
08. I Pretend (04:14)

Bonus Tracks:

09. She Has A Way (03:32)
10. I’m So Hot For You (05:11)
11. Beat By Beat ( Try My Love) (04:17)
12. I Cry For You (Remix) (06:35)
13. She Has A Way (Remix) (05:52)

EAC log
Exact Audio Copy V1.3 from 2. September 2016

EAC extraction logfile from 10. July 2017, 16:46

Bobby ”O” / Freedom In An Unfree World (Expanded Edition)

Used drive : PLEXTOR CD-ROM PX-54TA Adapter: 1 ID: 2

Read mode : Secure
Utilize accurate stream : Yes
Defeat audio cache : Yes
Make use of C2 pointers : No

Read offset correction : 12
Overread into Lead-In and Lead-Out : No
Fill up missing offset samples with silence : Yes
Delete leading and trailing silent blocks : No
Null samples used in CRC calculations : Yes
Used interface : Native Win32 interface for Win NT & 2000
Gap handling : Appended to previous track

Used output format : User Defined Encoder
Selected bitrate : 1024 kBit/s
Quality : High
Add ID3 tag : No
Command line compressor : C:Program Files (x86)Exact Audio CopyFlacflac-1.3.2-winflac-1.3.2-winwin64flac.exe
Additional command line options : -V -6 -T "COMMENT=ripped by Krevetka1972 special for new-team.org" -T "ARTIST=%artist%" -T "TITLE=%title%" -T "ALBUM=%albumtitle%" -T "DATE=%year%" -T "TRACKNUMBER=%tracknr%" -T "GENRE=%genre%" -T "ALBUMARTIST=%albuminterpret%" %source% -o %dest%

TOC of the extracted CD

Track | Start | Length | Start sector | End sector
––––––––––––––––––––––––––––-
1 | 0:00.00 | 5:14.10 | 0 | 23559
2 | 5:14.10 | 4:03.36 | 23560 | 41820
3 | 9:17.46 | 3:34.48 | 41821 | 57918
4 | 12:52.19 | 4:15.48 | 57919 | 77091
5 | 17:07.67 | 5:28.56 | 77092 | 101747
6 | 22:36.48 | 4:36.69 | 101748 | 122516
7 | 27:13.42 | 3:30.65 | 122517 | 138331
8 | 30:44.32 | 4:13.43 | 138332 | 157349
9 | 34:58.00 | 3:31.39 | 157350 | 173213
10 | 38:29.39 | 5:11.34 | 173214 | 196572
11 | 43:40.73 | 4:16.69 | 196573 | 215841
12 | 47:57.67 | 6:34.38 | 215842 | 245429
13 | 54:32.30 | 5:52.08 | 245430 | 271837

Track 1

Filename G:Bobby OBobby O – 1983 – Freedom In An Unfree World (Cherry Pop # CRPOP184)1. Bobby ”O” – I Cry For You.wav

Pre-gap length 0:00:02.00

Peak level 95.5 %
Extraction speed 3.8 X
Track quality 100.0 %
Test CRC 48C78F7C
Copy CRC 48C78F7C
Track not present in AccurateRip database
Copy OK

Track 2

Filename G:Bobby OBobby O – 1983 – Freedom In An Unfree World (Cherry Pop # CRPOP184)2. Bobby ”O” – How To Pick Up Girls.wav

Pre-gap length 0:00:01.74

Peak level 95.5 %
Extraction speed 4.1 X
Track quality 100.0 %
Test CRC BA25399A
Copy CRC BA25399A
Track not present in AccurateRip database
Copy OK

Track 3

Filename G:Bobby OBobby O – 1983 – Freedom In An Unfree World (Cherry Pop # CRPOP184)3. Bobby ”O” – All People Are The Same.wav

Pre-gap length 0:00:01.74

Peak level 95.5 %
Extraction speed 4.3 X
Track quality 100.0 %
Test CRC A65F9785
Copy CRC A65F9785
Track not present in AccurateRip database
Copy OK

Track 4

Filename G:Bobby OBobby O – 1983 – Freedom In An Unfree World (Cherry Pop # CRPOP184)4. Bobby ”O” – These Lies.wav

Pre-gap length 0:00:01.74

Peak level 95.5 %
Extraction speed 4.3 X
Track quality 99.9 %
Test CRC 4E834571
Copy CRC 4E834571
Track not present in AccurateRip database
Copy OK

Track 5

Filename G:Bobby OBobby O – 1983 – Freedom In An Unfree World (Cherry Pop # CRPOP184)5. Bobby ”O” – Givin’ Up.wav

Pre-gap length 0:00:01.74

Peak level 95.5 %
Extraction speed 5.3 X
Track quality 100.0 %
Test CRC A57DCD91
Copy CRC A57DCD91
Track not present in AccurateRip database
Copy OK

Track 6

Filename G:Bobby OBobby O – 1983 – Freedom In An Unfree World (Cherry Pop # CRPOP184)6. Bobby ”O” – Reputation.wav

Pre-gap length 0:00:01.74

Peak level 95.5 %
Extraction speed 5.5 X
Track quality 100.0 %
Test CRC 0F2C0764
Copy CRC 0F2C0764
Track not present in AccurateRip database
Copy OK

Track 7

Filename G:Bobby OBobby O – 1983 – Freedom In An Unfree World (Cherry Pop # CRPOP184)7. Bobby ”O” – German Girl.wav

Pre-gap length 0:00:01.74

Peak level 95.5 %
Extraction speed 5.6 X
Track quality 100.0 %
Test CRC 9F50F57A
Copy CRC 9F50F57A
Track not present in AccurateRip database
Copy OK

Track 8

Filename G:Bobby OBobby O – 1983 – Freedom In An Unfree World (Cherry Pop # CRPOP184)8. Bobby ”O” – I Pretend.wav

Pre-gap length 0:00:01.54

Peak level 95.5 %
Extraction speed 5.9 X
Track quality 100.0 %
Test CRC 98AE0FAB
Copy CRC 98AE0FAB
Track not present in AccurateRip database
Copy OK

Track 9

Filename G:Bobby OBobby O – 1983 – Freedom In An Unfree World (Cherry Pop # CRPOP184)9. Bobby ”O” – She Has A Way.wav

Pre-gap length 0:00:03.43

Peak level 95.5 %
Extraction speed 6.0 X
Track quality 100.0 %
Test CRC 6978A907
Copy CRC 6978A907
Track not present in AccurateRip database
Copy OK

Track 10

Filename G:Bobby OBobby O – 1983 – Freedom In An Unfree World (Cherry Pop # CRPOP184)10. Bobby ”O” – I’m So Hot For You.wav

Pre-gap length 0:00:02.02

Peak level 95.5 %
Extraction speed 6.5 X
Track quality 100.0 %
Test CRC 2AED3C93
Copy CRC 2AED3C93
Track not present in AccurateRip database
Copy OK

Track 11

Filename G:Bobby OBobby O – 1983 – Freedom In An Unfree World (Cherry Pop # CRPOP184)11. Bobby ”O” – Beat By Beat (Try My Love).wav

Pre-gap length 0:00:01.52

Peak level 95.5 %
Extraction speed 6.7 X
Track quality 100.0 %
Test CRC 0E84CA0D
Copy CRC 0E84CA0D
Track not present in AccurateRip database
Copy OK

Track 12

Filename G:Bobby OBobby O – 1983 – Freedom In An Unfree World (Cherry Pop # CRPOP184)12. Bobby ”O” – I Cry For You (Remix).wav

Pre-gap length 0:00:02.19

Peak level 95.5 %
Extraction speed 7.3 X
Track quality 100.0 %
Test CRC 4D08D5F4
Copy CRC 4D08D5F4
Track not present in AccurateRip database
Copy OK

Track 13

Filename G:Bobby OBobby O – 1983 – Freedom In An Unfree World (Cherry Pop # CRPOP184)13. Bobby ”O” – She Has A Way (Remix).wav

Pre-gap length 0:00:01.70

Peak level 94.5 %
Extraction speed 7.5 X
Track quality 100.0 %
Test CRC E90EDF2E
Copy CRC E90EDF2E
Track not present in AccurateRip database
Copy OK

None of the tracks are present in the AccurateRip database

No errors occurred

End of status report

–– AcoustID Plugin V1.2.0

Total fingerprints: 13

–– CUETools DB Plugin V2.1.6

[CTDB TOCID: MZj8XMPQydJJU.cVfUn4NFWvorc-] found
Submit result: MZj8XMPQydJJU.cVfUn4NFWvorc- has been confirmed
Track | CTDB Status
1 | (6/6) Accurately ripped
2 | (6/6) Accurately ripped
3 | (6/6) Accurately ripped
4 | (6/6) Accurately ripped
5 | (6/6) Accurately ripped
6 | (6/6) Accurately ripped
7 | (6/6) Accurately ripped
8 | (6/6) Accurately ripped
9 | (6/6) Accurately ripped
10 | (6/6) Accurately ripped
11 | (6/6) Accurately ripped
12 | (6/6) Accurately ripped
13 | (6/6) Accurately ripped

==== Log checksum 086F32D4391E9815385FF6CB869485EA196E0F528F216528D2A41D2E1A8BA5B4 ====

Dynamic Range Meter log
––––––––––––––––––––––––––––––––––––––––
Analyzed: Bobby "O" / Freedom in an Unfree World: Expanded Edition
––––––––––––––––––––––––––––––––––––––––

DR Peak RMS Duration Track
––––––––––––––––––––––––––––––––––––––––
DR13 -0.40 dB -14.89 dB 5:14 01-I Cry for You
DR13 -0.40 dB -14.83 dB 4:03 02-How to Pick Up Girls
DR12 -0.40 dB -14.43 dB 3:35 03-All People Are the Same
DR12 -0.40 dB -14.13 dB 4:16 04-These Lies
DR13 -0.40 dB -14.33 dB 5:29 05-Givin’ Up
DR13 -0.40 dB -14.39 dB 4:37 06-Reputation
DR14 -0.40 dB -15.09 dB 3:31 07-German Girl
DR13 -0.40 dB -14.09 dB 4:14 08-I Pretend
DR13 -0.40 dB -14.37 dB 3:32 09-She Has a Way
DR13 -0.40 dB -14.74 dB 5:11 10-I’m So Hot for You
DR13 -0.40 dB -15.06 dB 4:17 11-Beat By Beat ( Try My Love)
DR13 -0.40 dB -14.81 dB 6:35 12-I Cry for You (Remix)
DR12 -0.49 dB -14.19 dB 5:52 13-She Has a Way (Remix)
––––––––––––––––––––––––––––––––––––––––

Number of tracks: 13
Official DR value: DR13

Samplerate: 44100 Hz
Channels: 2
Bits per sample: 16
Bitrate: 981 kbps
Codec: FLAC
================================================================================

All thanks to original releaser

password: BlondStyle

Bobby "O" – Freedom In An Unfree World (1983) [2017, Remastered & Expanded Edition] Download, Warez, DDL, Free, Full Album, Torrent, Legal.

Download