Bob Marley – The Legend Live – Santa Barbara County Bowl 1979 (2016) [DVD9]

Download
Bob Marley - The Legend Live - Santa Barbara County Bowl 1979 (2016) [DVD9]

Bob Marley – The Legend Live – Santa Barbara County Bowl 1979 (2016)
DVD9 | NTSC (720×480) VBR, at 29.970 fps, 6 479 Kbps | 7.6 GB
Audio: 224 kbps, 48 khz, 2 channels, AC-3 | Run Time: 152 minutes
Reggae

"One of the last Bob Marley live performances committed to film before his untimely death in May 1981, ‘The Legend Live’ features the Tuff Gong in his full pomp, performing 21 of his most popular works at the Santa Barbara County Bowl on the 25th of November 1979. Now widely considered an equal of the now legendary ‘Live at the Rainbow’ show from 1977, the concert includes superb versions of such major hits as ‘I Shot The Sheriff’, ‘One Drop’, ‘Exodus’, ‘Jamming’, ‘Is This Love’, ‘Stir It Up’ and the anthemic ‘Get Up Stand Up’. The concert footage on the DVD runs for approximately 90 minutes, with the disc also featuring the 51 minute documentary ‘Prophecies and Messages’, which includes half an hour of interview footage with Bob Marley and the Wailers’ keyboard player, Tyrone Downie. The audio disc comprises the very best of the band’s performances from the night, most of which have never previously been released on CD."

Bob Marley - The Legend Live - Santa Barbara County Bowl 1979 (2016) [DVD9]

Bob Marley - The Legend Live - Santa Barbara County Bowl 1979 (2016) [DVD9]

Tracklist
01. Introduction
02. Positive Vibration
03. Wake Up And Live
04. I Shot The Sheriff
05. Ambush In The Night
06. Concrete Jungle
07. Running Away
08. Crazy Bald Head
09. Them Belly Full
10. Heathen
11. Ride Natty Ride
12. Africa Unite
13. One Drop
14. Exodus
15. So Much Things To Say
16. Zimbabwe
17. Jamming
18. Is This Love
19. Kinky Reggae
20. Stir It Up
21. Get Up Stand Up
22. The Fans: A Point Of View
23. War/No More Trouble
24. Prophecies & Messages

DVDInfo
General
Complete name : C:UsersgguDesktopgguBob.Marley.The.Legend.Live.2016.BONUS.NTSC.DVD9.MDVDR-D2HVDVGET_UP_STAND_UPVIDEO_TSVIDEO_TS.BUP
Format : DVD Video
Format profile : Menu
File size : 12.0 KiB
Overall bit rate mode : Variable

Video
ID : 224 (0xE0)
Format : MPEG Video
Format version : Version 2
Bit rate mode : Variable
Width : 720 pixels
Height : 480 pixels
Display aspect ratio : 16:9
Frame rate : 29.970 (29970/1000) FPS
Standard : NTSC
Compression mode : Lossy

Text
Format : RLE
Format/Info : Run-length encoding
Bit depth : 2 bits

General
Complete name : C:UsersgguDesktopgguBob.Marley.The.Legend.Live.2016.BONUS.NTSC.DVD9.MDVDR-D2HVDVGET_UP_STAND_UPVIDEO_TSVIDEO_TS.IFO
Format : DVD Video
Format profile : Menu
File size : 12.0 KiB
Overall bit rate mode : Variable

Video
ID : 224 (0xE0)
Format : MPEG Video
Format version : Version 2
Bit rate mode : Variable
Width : 720 pixels
Height : 480 pixels
Display aspect ratio : 16:9
Frame rate : 29.970 (29970/1000) FPS
Standard : NTSC
Compression mode : Lossy

Text
Format : RLE
Format/Info : Run-length encoding
Bit depth : 2 bits

General
Complete name : C:UsersgguDesktopgguBob.Marley.The.Legend.Live.2016.BONUS.NTSC.DVD9.MDVDR-D2HVDVGET_UP_STAND_UPVIDEO_TSVIDEO_TS.VOB
Format : MPEG-PS
File size : 9.51 MiB
Duration : 17 s 618 ms
Overall bit rate mode : Variable
Overall bit rate : 4 528 kb/s

Video
ID : 224 (0xE0)
Format : MPEG Video
Format version : Version 2
Format profile : Main@Main
Format settings, BVOP : Yes
Format settings, Matrix : Default
Format settings, GOP : M=3, N=15
Duration : 17 s 618 ms
Bit rate mode : Variable
Bit rate : 4 438 kb/s
Width : 720 pixels
Height : 480 pixels
Display aspect ratio : 16:9
Frame rate : 29.970 (30000/1001) FPS
Standard : NTSC
Color space : YUV
Chroma subsampling : 4:2:0
Bit depth : 8 bits
Scan type : Progressive
Compression mode : Lossy
Bits/(Pixel*Frame) : 0.428
Stream size : 9.32 MiB (98%)

Menu

General
Complete name : C:UsersgguDesktopgguBob.Marley.The.Legend.Live.2016.BONUS.NTSC.DVD9.MDVDR-D2HVDVGET_UP_STAND_UPVIDEO_TSVTS_01_0.BUP
Format : DVD Video
Format profile : Program
File size : 74.0 KiB
Duration : 1 h 32 min
Overall bit rate mode : Variable
Overall bit rate : 110 b/s

Video
ID : 224 (0xE0)
Format : MPEG Video
Format version : Version 2
Duration : 1 h 32 min
Bit rate mode : Variable
Width : 720 pixels
Height : 480 pixels
Display aspect ratio : 16:9
Frame rate : 29.970 (29970/1000) FPS
Standard : NTSC
Compression mode : Lossy

Audio
ID : 128 (0x80)
Format : AC-3
Format/Info : Audio Coding 3
Duration : 1 h 32 min
Channel(s) : 2 channels
Sampling rate : 48.0 kHz
Compression mode : Lossy
Language : English

Menu
Duration : 1 h 32 min
00:00:00.000 : Chapter 1
00:00:52.033 : Chapter 2
00:01:27.766 : Chapter 3
00:06:30.632 : Chapter 4
00:11:46.332 : Chapter 5
00:16:22.065 : Chapter 6
00:20:11.165 : Chapter 7
00:25:10.231 : Chapter 8
00:29:12.864 : Chapter 9
00:33:21.830 : Chapter 10
00:36:43.230 : Chapter 11
00:41:13.563 : Chapter 12
00:45:26.629 : Chapter 13
00:49:55.229 : Chapter 14
00:53:59.862 : Chapter 15
01:00:08.328 : Chapter 16
01:03:38.594 : Chapter 17
01:07:43.627 : Chapter 18
01:12:40.227 : Chapter 19
01:15:57.793 : Chapter 20
01:19:31.626 : Chapter 21
01:23:11.926 : Chapter 22
01:30:21.259 : Chapter 23
01:31:47.925 : Chapter 24
01:32:10.458 : Chapter 25
List (Audio) : 0

General
Complete name : C:UsersgguDesktopgguBob.Marley.The.Legend.Live.2016.BONUS.NTSC.DVD9.MDVDR-D2HVDVGET_UP_STAND_UPVIDEO_TSVTS_01_0.IFO
Format : DVD Video
Format profile : Program
File size : 74.0 KiB
Duration : 1 h 32 min
Overall bit rate mode : Variable
Overall bit rate : 110 b/s

Video
ID : 224 (0xE0)
Format : MPEG Video
Format version : Version 2
Duration : 1 h 32 min
Bit rate mode : Variable
Width : 720 pixels
Height : 480 pixels
Display aspect ratio : 16:9
Frame rate : 29.970 (29970/1000) FPS
Standard : NTSC
Compression mode : Lossy

Audio
ID : 128 (0x80)
Format : AC-3
Format/Info : Audio Coding 3
Duration : 1 h 32 min
Channel(s) : 2 channels
Sampling rate : 48.0 kHz
Compression mode : Lossy
Language : English

Menu
Duration : 1 h 32 min
00:00:00.000 : Chapter 1
00:00:52.033 : Chapter 2
00:01:27.766 : Chapter 3
00:06:30.632 : Chapter 4
00:11:46.332 : Chapter 5
00:16:22.065 : Chapter 6
00:20:11.165 : Chapter 7
00:25:10.231 : Chapter 8
00:29:12.864 : Chapter 9
00:33:21.830 : Chapter 10
00:36:43.230 : Chapter 11
00:41:13.563 : Chapter 12
00:45:26.629 : Chapter 13
00:49:55.229 : Chapter 14
00:53:59.862 : Chapter 15
01:00:08.328 : Chapter 16
01:03:38.594 : Chapter 17
01:07:43.627 : Chapter 18
01:12:40.227 : Chapter 19
01:15:57.793 : Chapter 20
01:19:31.626 : Chapter 21
01:23:11.926 : Chapter 22
01:30:21.259 : Chapter 23
01:31:47.925 : Chapter 24
01:32:10.458 : Chapter 25
List (Audio) : 0

General
Complete name : C:UsersgguDesktopgguBob.Marley.The.Legend.Live.2016.BONUS.NTSC.DVD9.MDVDR-D2HVDVGET_UP_STAND_UPVIDEO_TSVTS_01_0.VOB
Format : MPEG-PS
File size : 9.72 MiB
Duration : 30 s 336 ms
Overall bit rate : 2 688 kb/s

Video
ID : 224 (0xE0)
Format : MPEG Video
Format version : Version 2
Format profile : Main@Main
Format settings, BVOP : Yes
Format settings, Matrix : Custom
Duration : 83 ms
Bit rate : 2 251 kb/s
Width : 720 pixels
Height : 480 pixels
Display aspect ratio : 16:9
Frame rate : 29.970 (30000/1001) FPS
Standard : NTSC
Color space : YUV
Chroma subsampling : 4:2:0
Bit depth : 8 bits
Scan type : Progressive
Scan order : Top Field First
Compression mode : Lossy
Bits/(Pixel*Frame) : 0.217
Stream size : 18.3 KiB (0%)

Audio
ID : 189 (0xBD)-128 (0x80)
Format : AC-3
Format/Info : Audio Coding 3
Mode extension : CM (complete main)
Format settings, Endianness : Big
Muxing mode : DVD-Video
Duration : 30 s 336 ms
Bit rate mode : Constant
Bit rate : 384 kb/s
Channel(s) : 6 channels
Channel positions : Front: L C R, Side: L R, LFE
Sampling rate : 48.0 kHz
Frame rate : 31.250 FPS (1536 spf)
Compression mode : Lossy
Delay relative to video : 49 ms
Stream size : 1.39 MiB (14%)

Text #1
ID : 189 (0xBD)-32 (0x20)
Format : RLE
Format/Info : Run-length encoding
Muxing mode : DVD-Video
Delay relative to video : 49 ms

Text #2
ID : 189 (0xBD)-33 (0x21)
Format : RLE
Format/Info : Run-length encoding
Muxing mode : DVD-Video
Delay relative to video : 49 ms

Menu

General
Complete name : C:UsersgguDesktopgguBob.Marley.The.Legend.Live.2016.BONUS.NTSC.DVD9.MDVDR-D2HVDVGET_UP_STAND_UPVIDEO_TSVTS_01_1.VOB
Format : MPEG-PS
File size : 1 024 MiB
Duration : 20 min
Overall bit rate mode : Variable
Overall bit rate : 7 008 kb/s

Video
ID : 224 (0xE0)
Format : MPEG Video
Format version : Version 2
Format profile : Main@Main
Format settings, BVOP : Yes
Format settings, Matrix : Default
Format settings, GOP : M=3, N=26
Format settings, picture structure : Field
Duration : 20 min
Bit rate mode : Variable
Bit rate : 6 645 kb/s
Maximum bit rate : 8 700 kb/s
Width : 720 pixels
Height : 480 pixels
Display aspect ratio : 2.40:1
Frame rate : 29.970 (30000/1001) FPS
Standard : NTSC
Color space : YUV
Chroma subsampling : 4:2:0
Bit depth : 8 bits
Scan type : Interlaced
Scan order : Top Field First
Compression mode : Lossy
Bits/(Pixel*Frame) : 0.642
Time code of first frame : 09:59:59:28
Time code source : Group of pictures header
GOP, Open/Closed : Open
Stream size : 971 MiB (95%)
Color primaries : BT.601 NTSC
Transfer characteristics : BT.601
Matrix coefficients : BT.601

Audio
ID : 189 (0xBD)-128 (0x80)
Format : AC-3
Format/Info : Audio Coding 3
Mode extension : CM (complete main)
Format settings, Endianness : Big
Muxing mode : DVD-Video
Duration : 20 min
Bit rate mode : Constant
Bit rate : 224 kb/s
Channel(s) : 2 channels
Channel positions : Front: L R
Sampling rate : 48.0 kHz
Frame rate : 31.250 FPS (1536 spf)
Compression mode : Lossy
Stream size : 32.7 MiB (3%)

Menu

General
Complete name : C:UsersgguDesktopgguBob.Marley.The.Legend.Live.2016.BONUS.NTSC.DVD9.MDVDR-D2HVDVGET_UP_STAND_UPVIDEO_TSVTS_01_2.VOB
Format : MPEG-PS
File size : 1 024 MiB
Duration : 21 min
Overall bit rate mode : Variable
Overall bit rate : 6 764 kb/s

Video
ID : 224 (0xE0)
Format : MPEG Video
Format version : Version 2
Format profile : Main@Main
Format settings, BVOP : Yes
Format settings, Matrix : Default
Format settings, GOP : M=3, N=26
Format settings, picture structure : Field
Duration : 21 min
Bit rate mode : Variable
Bit rate : 6 405 kb/s
Maximum bit rate : 8 700 kb/s
Width : 720 pixels
Height : 480 pixels
Display aspect ratio : 2.40:1
Frame rate : 29.970 (30000/1001) FPS
Standard : NTSC
Color space : YUV
Chroma subsampling : 4:2:0
Bit depth : 8 bits
Scan type : Interlaced
Scan order : Top Field First
Compression mode : Lossy
Bits/(Pixel*Frame) : 0.618
Time code of first frame : 10:20:24:03
Time code source : Group of pictures header
GOP, Open/Closed : Open
Stream size : 969 MiB (95%)
Color primaries : BT.601 NTSC
Transfer characteristics : BT.601
Matrix coefficients : BT.601

Audio
ID : 189 (0xBD)-128 (0x80)
Format : AC-3
Format/Info : Audio Coding 3
Mode extension : CM (complete main)
Format settings, Endianness : Big
Muxing mode : DVD-Video
Duration : 21 min
Bit rate mode : Constant
Bit rate : 224 kb/s
Channel(s) : 2 channels
Channel positions : Front: L R
Sampling rate : 48.0 kHz
Frame rate : 31.250 FPS (1536 spf)
Compression mode : Lossy
Delay relative to video : -142 ms
Stream size : 33.9 MiB (3%)

Menu

General
Complete name : C:UsersgguDesktopgguBob.Marley.The.Legend.Live.2016.BONUS.NTSC.DVD9.MDVDR-D2HVDVGET_UP_STAND_UPVIDEO_TSVTS_01_3.VOB
Format : MPEG-PS
File size : 1 024 MiB
Duration : 22 min
Overall bit rate mode : Variable
Overall bit rate : 6 446 kb/s

Video
ID : 224 (0xE0)
Format : MPEG Video
Format version : Version 2
Format profile : Main@Main
Format settings, BVOP : Yes
Format settings, Matrix : Default
Format settings, GOP : M=3, N=26
Format settings, picture structure : Field
Duration : 22 min
Bit rate mode : Variable
Bit rate : 6 094 kb/s
Maximum bit rate : 8 700 kb/s
Width : 720 pixels
Height : 480 pixels
Display aspect ratio : 2.40:1
Frame rate : 29.970 (30000/1001) FPS
Standard : NTSC
Color space : YUV
Chroma subsampling : 4:2:0
Bit depth : 8 bits
Scan type : Interlaced
Scan order : Top Field First
Compression mode : Lossy
Bits/(Pixel*Frame) : 0.588
Time code of first frame : 10:41:32:17
Time code source : Group of pictures header
GOP, Open/Closed : Open
Stream size : 968 MiB (95%)
Color primaries : BT.601 NTSC
Transfer characteristics : BT.601
Matrix coefficients : BT.601

Audio
ID : 189 (0xBD)-128 (0x80)
Format : AC-3
Format/Info : Audio Coding 3
Mode extension : CM (complete main)
Format settings, Endianness : Big
Muxing mode : DVD-Video
Duration : 22 min
Bit rate mode : Constant
Bit rate : 224 kb/s
Channel(s) : 2 channels
Channel positions : Front: L R
Sampling rate : 48.0 kHz
Frame rate : 31.250 FPS (1536 spf)
Compression mode : Lossy
Delay relative to video : -149 ms
Stream size : 35.6 MiB (3%)

Menu

General
Complete name : C:UsersgguDesktopgguBob.Marley.The.Legend.Live.2016.BONUS.NTSC.DVD9.MDVDR-D2HVDVGET_UP_STAND_UPVIDEO_TSVTS_01_4.VOB
Format : MPEG-PS
File size : 1 024 MiB
Duration : 22 min
Overall bit rate mode : Variable
Overall bit rate : 6 465 kb/s

Video
ID : 224 (0xE0)
Format : MPEG Video
Format version : Version 2
Format profile : Main@Main
Format settings, BVOP : Yes
Format settings, Matrix : Default
Format settings, GOP : M=3, N=26
Format settings, picture structure : Field
Duration : 22 min
Bit rate mode : Variable
Bit rate : 6 112 kb/s
Maximum bit rate : 8 700 kb/s
Width : 720 pixels
Height : 480 pixels
Display aspect ratio : 2.40:1
Frame rate : 29.970 (30000/1001) FPS
Standard : NTSC
Color space : YUV
Chroma subsampling : 4:2:0
Bit depth : 8 bits
Scan type : Interlaced
Scan order : Top Field First
Compression mode : Lossy
Bits/(Pixel*Frame) : 0.590
Time code of first frame : 11:03:43:22
Time code source : Group of pictures header
GOP, Open/Closed : Open
Stream size : 968 MiB (95%)
Color primaries : BT.601 NTSC
Transfer characteristics : BT.601
Matrix coefficients : BT.601

Audio
ID : 189 (0xBD)-128 (0x80)
Format : AC-3
Format/Info : Audio Coding 3
Mode extension : CM (complete main)
Format settings, Endianness : Big
Muxing mode : DVD-Video
Duration : 22 min
Bit rate mode : Constant
Bit rate : 224 kb/s
Channel(s) : 2 channels
Channel positions : Front: L R
Sampling rate : 48.0 kHz
Frame rate : 31.250 FPS (1536 spf)
Compression mode : Lossy
Delay relative to video : -167 ms
Stream size : 35.5 MiB (3%)

Menu

General
Complete name : C:UsersgguDesktopgguBob.Marley.The.Legend.Live.2016.BONUS.NTSC.DVD9.MDVDR-D2HVDVGET_UP_STAND_UPVIDEO_TSVTS_01_5.VOB
Format : MPEG-PS
File size : 272 MiB
Duration : 6 min
Overall bit rate mode : Variable
Overall bit rate : 6 023 kb/s

Video
ID : 224 (0xE0)
Format : MPEG Video
Format version : Version 2
Format profile : Main@Main
Format settings, BVOP : Yes
Format settings, Matrix : Default
Format settings, GOP : M=3, N=26
Format settings, picture structure : Field
Duration : 6 min
Bit rate mode : Variable
Bit rate : 5 679 kb/s
Maximum bit rate : 8 700 kb/s
Width : 720 pixels
Height : 480 pixels
Display aspect ratio : 2.40:1
Frame rate : 29.970 (30000/1001) FPS
Standard : NTSC
Color space : YUV
Chroma subsampling : 4:2:0
Bit depth : 8 bits
Scan type : Interlaced
Scan order : Top Field First
Compression mode : Lossy
Bits/(Pixel*Frame) : 0.548
Time code of first frame : 11:25:50:27
Time code source : Group of pictures header
GOP, Open/Closed : Open
Stream size : 257 MiB (94%)
Color primaries : BT.601 NTSC
Transfer characteristics : BT.601
Matrix coefficients : BT.601

Audio
ID : 189 (0xBD)-128 (0x80)
Format : AC-3
Format/Info : Audio Coding 3
Mode extension : CM (complete main)
Format settings, Endianness : Big
Muxing mode : DVD-Video
Duration : 6 min
Bit rate mode : Constant
Bit rate : 224 kb/s
Channel(s) : 2 channels
Channel positions : Front: L R
Sampling rate : 48.0 kHz
Frame rate : 31.250 FPS (1536 spf)
Compression mode : Lossy
Delay relative to video : -182 ms
Stream size : 10.1 MiB (4%)

Menu

General
Complete name : C:UsersgguDesktopgguBob.Marley.The.Legend.Live.2016.BONUS.NTSC.DVD9.MDVDR-D2HVDVGET_UP_STAND_UPVIDEO_TSVTS_02_0.BUP
Format : DVD Video
Format profile : Program
File size : 60.0 KiB
Duration : 51 min
Overall bit rate mode : Variable
Overall bit rate : 160 b/s

Video
ID : 224 (0xE0)
Format : MPEG Video
Format version : Version 2
Duration : 51 min
Bit rate mode : Variable
Width : 720 pixels
Height : 480 pixels
Display aspect ratio : 16:9
Frame rate : 29.970 (29970/1000) FPS
Standard : NTSC
Compression mode : Lossy

Audio
ID : 128 (0x80)
Format : AC-3
Format/Info : Audio Coding 3
Duration : 51 min
Channel(s) : 2 channels
Sampling rate : 48.0 kHz
Compression mode : Lossy
Language : English

Text #1
ID : 32 (0x20)
Format : RLE
Format/Info : Run-length encoding
Bit depth : 2 bits
Language : English

Text #2
ID : 33 (0x21)
Format : RLE
Format/Info : Run-length encoding
Bit depth : 2 bits
Language : German

Text #3
ID : 34 (0x22)
Format : RLE
Format/Info : Run-length encoding
Bit depth : 2 bits
Language : Spanish

Text #4
ID : 35 (0x23)
Format : RLE
Format/Info : Run-length encoding
Bit depth : 2 bits
Language : French

Text #5
ID : 36 (0x24)
Format : RLE
Format/Info : Run-length encoding
Bit depth : 2 bits
Language : Italian

Text #6
ID : 37 (0x25)
Format : RLE
Format/Info : Run-length encoding
Bit depth : 2 bits
Language : Dutch

Menu #1
Duration : 4 min
00:00:00.000 : Chapter 1
00:04:13.000 : Chapter 2
List (Audio) : 0
List (Subtitles 4/3) : 0 / 0 / 0 / 0 / 0 / 0
List (Subtitles Wide) : 0 / 1 / 2 / 3 / 4 / 5
List (Subtitles Letterbox) : 0 / 1 / 2 / 3 / 4 / 5
List (Subtitles Pan&Scan) : 0 / 0 / 0 / 0 / 0 / 0

Menu #2
Duration : 51 min
00:00:00.000 : Chapter 1
00:00:41.500 : Chapter 2
00:06:49.066 : Chapter 3
00:11:10.132 : Chapter 4
00:14:48.432 : Chapter 5
00:23:35.732 : Chapter 6
00:25:13.865 : Chapter 7
00:27:39.131 : Chapter 8
00:32:59.131 : Chapter 9
00:35:55.864 : Chapter 10
00:38:20.597 : Chapter 11
00:42:26.863 : Chapter 12
00:45:37.229 : Chapter 13
00:51:08.295 : Chapter 14
List (Audio) : 0
List (Subtitles 4/3) : 0 / 0 / 0 / 0 / 0 / 0
List (Subtitles Wide) : 0 / 1 / 2 / 3 / 4 / 5
List (Subtitles Letterbox) : 0 / 1 / 2 / 3 / 4 / 5
List (Subtitles Pan&Scan) : 0 / 0 / 0 / 0 / 0 / 0

Menu #3
Duration : 4 min
00:00:00.000 : Chapter 1
00:04:53.000 : Chapter 2
List (Audio) : 0
List (Subtitles 4/3) : 0 / 0 / 0 / 0 / 0 / 0
List (Subtitles Wide) : 0 / 1 / 2 / 3 / 4 / 5
List (Subtitles Letterbox) : 0 / 1 / 2 / 3 / 4 / 5
List (Subtitles Pan&Scan) : 0 / 0 / 0 / 0 / 0 / 0

Menu #4
Duration : 6 min
00:00:00.000 : Chapter 1
00:06:08.000 : Chapter 2
List (Audio) : 0
List (Subtitles 4/3) : 0 / 0 / 0 / 0 / 0 / 0
List (Subtitles Wide) : 0 / 0 / 0 / 0 / 0 / 0
List (Subtitles Letterbox) : 0 / 0 / 0 / 0 / 0 / 0
List (Subtitles Pan&Scan) : 0 / 0 / 0 / 0 / 0 / 0

General
Complete name : C:UsersgguDesktopgguBob.Marley.The.Legend.Live.2016.BONUS.NTSC.DVD9.MDVDR-D2HVDVGET_UP_STAND_UPVIDEO_TSVTS_02_0.IFO
Format : DVD Video
Format profile : Program
File size : 60.0 KiB
Duration : 51 min
Overall bit rate mode : Variable
Overall bit rate : 160 b/s

Video
ID : 224 (0xE0)
Format : MPEG Video
Format version : Version 2
Duration : 51 min
Bit rate mode : Variable
Width : 720 pixels
Height : 480 pixels
Display aspect ratio : 16:9
Frame rate : 29.970 (29970/1000) FPS
Standard : NTSC
Compression mode : Lossy

Audio
ID : 128 (0x80)
Format : AC-3
Format/Info : Audio Coding 3
Duration : 51 min
Channel(s) : 2 channels
Sampling rate : 48.0 kHz
Compression mode : Lossy
Language : English

Text #1
ID : 32 (0x20)
Format : RLE
Format/Info : Run-length encoding
Bit depth : 2 bits
Language : English

Text #2
ID : 33 (0x21)
Format : RLE
Format/Info : Run-length encoding
Bit depth : 2 bits
Language : German

Text #3
ID : 34 (0x22)
Format : RLE
Format/Info : Run-length encoding
Bit depth : 2 bits
Language : Spanish

Text #4
ID : 35 (0x23)
Format : RLE
Format/Info : Run-length encoding
Bit depth : 2 bits
Language : French

Text #5
ID : 36 (0x24)
Format : RLE
Format/Info : Run-length encoding
Bit depth : 2 bits
Language : Italian

Text #6
ID : 37 (0x25)
Format : RLE
Format/Info : Run-length encoding
Bit depth : 2 bits
Language : Dutch

Menu #1
Duration : 4 min
00:00:00.000 : Chapter 1
00:04:13.000 : Chapter 2
List (Audio) : 0
List (Subtitles 4/3) : 0 / 0 / 0 / 0 / 0 / 0
List (Subtitles Wide) : 0 / 1 / 2 / 3 / 4 / 5
List (Subtitles Letterbox) : 0 / 1 / 2 / 3 / 4 / 5
List (Subtitles Pan&Scan) : 0 / 0 / 0 / 0 / 0 / 0

Menu #2
Duration : 51 min
00:00:00.000 : Chapter 1
00:00:41.500 : Chapter 2
00:06:49.066 : Chapter 3
00:11:10.132 : Chapter 4
00:14:48.432 : Chapter 5
00:23:35.732 : Chapter 6
00:25:13.865 : Chapter 7
00:27:39.131 : Chapter 8
00:32:59.131 : Chapter 9
00:35:55.864 : Chapter 10
00:38:20.597 : Chapter 11
00:42:26.863 : Chapter 12
00:45:37.229 : Chapter 13
00:51:08.295 : Chapter 14
List (Audio) : 0
List (Subtitles 4/3) : 0 / 0 / 0 / 0 / 0 / 0
List (Subtitles Wide) : 0 / 1 / 2 / 3 / 4 / 5
List (Subtitles Letterbox) : 0 / 1 / 2 / 3 / 4 / 5
List (Subtitles Pan&Scan) : 0 / 0 / 0 / 0 / 0 / 0

Menu #3
Duration : 4 min
00:00:00.000 : Chapter 1
00:04:53.000 : Chapter 2
List (Audio) : 0
List (Subtitles 4/3) : 0 / 0 / 0 / 0 / 0 / 0
List (Subtitles Wide) : 0 / 1 / 2 / 3 / 4 / 5
List (Subtitles Letterbox) : 0 / 1 / 2 / 3 / 4 / 5
List (Subtitles Pan&Scan) : 0 / 0 / 0 / 0 / 0 / 0

Menu #4
Duration : 6 min
00:00:00.000 : Chapter 1
00:06:08.000 : Chapter 2
List (Audio) : 0
List (Subtitles 4/3) : 0 / 0 / 0 / 0 / 0 / 0
List (Subtitles Wide) : 0 / 0 / 0 / 0 / 0 / 0
List (Subtitles Letterbox) : 0 / 0 / 0 / 0 / 0 / 0
List (Subtitles Pan&Scan) : 0 / 0 / 0 / 0 / 0 / 0

General
Complete name : C:UsersgguDesktopgguBob.Marley.The.Legend.Live.2016.BONUS.NTSC.DVD9.MDVDR-D2HVDVGET_UP_STAND_UPVIDEO_TSVTS_02_0.VOB
Format : MPEG-PS
File size : 6.11 MiB
Duration : 37 s 984 ms
Overall bit rate : 1 349 kb/s

Video
ID : 224 (0xE0)
Format : MPEG Video
Format version : Version 2
Format profile : Main@Main
Format settings, BVOP : No
Format settings, Matrix : Custom
Duration : 451 ms
Bit rate : 938 kb/s
Maximum bit rate : 8 000 kb/s
Width : 720 pixels
Height : 480 pixels
Display aspect ratio : 16:9
Frame rate : 29.970 (30000/1001) FPS
Standard : NTSC
Color space : YUV
Chroma subsampling : 4:2:0
Bit depth : 8 bits
Scan type : Progressive
Scan order : Top Field First
Compression mode : Lossy
Bits/(Pixel*Frame) : 0.091
Stream size : 53.5 KiB (1%)

Audio
ID : 189 (0xBD)-128 (0x80)
Format : AC-3
Format/Info : Audio Coding 3
Mode extension : CM (complete main)
Format settings, Endianness : Big
Muxing mode : DVD-Video
Duration : 37 s 984 ms
Bit rate mode : Constant
Bit rate : 384 kb/s
Channel(s) : 6 channels
Channel positions : Front: L C R, Side: L R, LFE
Sampling rate : 48.0 kHz
Frame rate : 31.250 FPS (1536 spf)
Compression mode : Lossy
Stream size : 1.74 MiB (28%)

Text #1
ID : 189 (0xBD)-32 (0x20)
Format : RLE
Format/Info : Run-length encoding
Muxing mode : DVD-Video

Text #2
ID : 189 (0xBD)-33 (0x21)
Format : RLE
Format/Info : Run-length encoding
Muxing mode : DVD-Video

Menu

General
Complete name : C:UsersgguDesktopgguBob.Marley.The.Legend.Live.2016.BONUS.NTSC.DVD9.MDVDR-D2HVDVGET_UP_STAND_UPVIDEO_TSVTS_02_1.VOB
Format : MPEG-PS
File size : 1 024 MiB
Duration : 17 min
Overall bit rate mode : Variable
Overall bit rate : 8 343 kb/s

Video
ID : 224 (0xE0)
Format : MPEG Video
Format version : Version 2
Format profile : Main@Main
Format settings, BVOP : Yes
Format settings, Matrix : Default
Format settings, GOP : M=3, N=26
Format settings, picture structure : Field
Duration : 17 min
Bit rate mode : Variable
Bit rate : 7 953 kb/s
Maximum bit rate : 8 700 kb/s
Width : 720 pixels
Height : 480 pixels
Display aspect ratio : 2.40:1
Frame rate : 29.970 (30000/1001) FPS
Standard : NTSC
Color space : YUV
Chroma subsampling : 4:2:0
Bit depth : 8 bits
Scan type : Interlaced
Scan order : Top Field First
Compression mode : Lossy
Bits/(Pixel*Frame) : 0.768
Time code of first frame : 09:59:59:00
Time code source : Group of pictures header
GOP, Open/Closed : Open
Stream size : 976 MiB (95%)
Color primaries : BT.601 NTSC
Transfer characteristics : BT.601
Matrix coefficients : BT.601

Audio
ID : 189 (0xBD)-128 (0x80)
Format : AC-3
Format/Info : Audio Coding 3
Mode extension : CM (complete main)
Format settings, Endianness : Big
Muxing mode : DVD-Video
Duration : 17 min
Bit rate mode : Constant
Bit rate : 224 kb/s
Channel(s) : 2 channels
Channel positions : Front: L R
Sampling rate : 48.0 kHz
Frame rate : 31.250 FPS (1536 spf)
Compression mode : Lossy
Stream size : 27.5 MiB (3%)

Text #1
ID : 189 (0xBD)-32 (0x20)
Format : RLE
Format/Info : Run-length encoding
Muxing mode : DVD-Video
Duration : 17 min
Delay relative to video : 3 s 69 ms

Text #2
ID : 189 (0xBD)-33 (0x21)
Format : RLE
Format/Info : Run-length encoding
Muxing mode : DVD-Video
Duration : 17 min
Delay relative to video : 3 s 69 ms

Text #3
ID : 189 (0xBD)-34 (0x22)
Format : RLE
Format/Info : Run-length encoding
Muxing mode : DVD-Video
Duration : 17 min
Delay relative to video : 3 s 69 ms

Text #4
ID : 189 (0xBD)-35 (0x23)
Format : RLE
Format/Info : Run-length encoding
Muxing mode : DVD-Video
Duration : 17 min
Delay relative to video : 3 s 69 ms

Text #5
ID : 189 (0xBD)-36 (0x24)
Format : RLE
Format/Info : Run-length encoding
Muxing mode : DVD-Video
Duration : 17 min
Delay relative to video : 3 s 69 ms

Text #6
ID : 189 (0xBD)-37 (0x25)
Format : RLE
Format/Info : Run-length encoding
Muxing mode : DVD-Video
Duration : 17 min
Delay relative to video : 3 s 69 ms

Menu
Duration : 17 min

General
Complete name : C:UsersgguDesktopgguBob.Marley.The.Legend.Live.2016.BONUS.NTSC.DVD9.MDVDR-D2HVDVGET_UP_STAND_UPVIDEO_TSVTS_02_2.VOB
Format : MPEG-PS
File size : 1 024 MiB
Duration : 21 min
Overall bit rate mode : Variable
Overall bit rate : 6 649 kb/s

Video
ID : 224 (0xE0)
Format : MPEG Video
Format version : Version 2
Format profile : Main@Main
Format settings, BVOP : Yes
Format settings, Matrix : Default
Format settings, GOP : M=3, N=26
Format settings, picture structure : Field
Duration : 21 min
Bit rate mode : Variable
Bit rate : 6 292 kb/s
Maximum bit rate : 8 700 kb/s
Width : 720 pixels
Height : 480 pixels
Display aspect ratio : 2.40:1
Frame rate : 29.970 (30000/1001) FPS
Standard : NTSC
Color space : YUV
Chroma subsampling : 4:2:0
Bit depth : 8 bits
Scan type : Interlaced
Scan order : Top Field First
Compression mode : Lossy
Bits/(Pixel*Frame) : 0.607
Time code of first frame : 10:24:06:28
Time code source : Group of pictures header
GOP, Open/Closed : Open
Stream size : 969 MiB (95%)
Color primaries : BT.601 NTSC
Transfer characteristics : BT.601
Matrix coefficients : BT.601

Audio
ID : 189 (0xBD)-128 (0x80)
Format : AC-3
Format/Info : Audio Coding 3
Mode extension : CM (complete main)
Format settings, Endianness : Big
Muxing mode : DVD-Video
Duration : 21 min
Bit rate mode : Constant
Bit rate : 224 kb/s
Channel(s) : 2 channels
Channel positions : Front: L R
Sampling rate : 48.0 kHz
Frame rate : 31.250 FPS (1536 spf)
Compression mode : Lossy
Delay relative to video : -180 ms
Stream size : 34.5 MiB (3%)

Text #1
ID : 189 (0xBD)-32 (0x20)
Format : RLE
Format/Info : Run-length encoding
Muxing mode : DVD-Video
Duration : 21 min
Delay relative to video : 1 s 568 ms

Text #2
ID : 189 (0xBD)-33 (0x21)
Format : RLE
Format/Info : Run-length encoding
Muxing mode : DVD-Video
Duration : 21 min
Delay relative to video : 1 s 602 ms

Text #3
ID : 189 (0xBD)-34 (0x22)
Format : RLE
Format/Info : Run-length encoding
Muxing mode : DVD-Video
Duration : 21 min
Delay relative to video : 1 s 602 ms

Text #4
ID : 189 (0xBD)-35 (0x23)
Format : RLE
Format/Info : Run-length encoding
Muxing mode : DVD-Video
Duration : 21 min
Delay relative to video : 1 s 602 ms

Text #5
ID : 189 (0xBD)-36 (0x24)
Format : RLE
Format/Info : Run-length encoding
Muxing mode : DVD-Video
Duration : 21 min
Delay relative to video : 1 s 602 ms

Text #6
ID : 189 (0xBD)-37 (0x25)
Format : RLE
Format/Info : Run-length encoding
Muxing mode : DVD-Video
Duration : 21 min
Delay relative to video : 1 s 602 ms

Menu
Duration : 21 min

General
Complete name : C:UsersgguDesktopgguBob.Marley.The.Legend.Live.2016.BONUS.NTSC.DVD9.MDVDR-D2HVDVGET_UP_STAND_UPVIDEO_TSVTS_02_3.VOB
Format : MPEG-PS
File size : 1 024 MiB
Overall bit rate mode : Variable

Video
ID : 224 (0xE0)
Format : MPEG Video
Format version : Version 2
Format profile : Main@Main
Format settings, BVOP : Yes
Format settings, Matrix : Default
Format settings, GOP : M=3, N=26
Format settings, picture structure : Field
Bit rate mode : Variable
Maximum bit rate : 8 700 kb/s
Width : 720 pixels
Height : 480 pixels
Display aspect ratio : 2.40:1
Frame rate : 29.970 (30000/1001) FPS
Standard : NTSC
Color space : YUV
Chroma subsampling : 4:2:0
Bit depth : 8 bits
Scan type : Interlaced
Scan order : Top Field First
Compression mode : Lossy
Time code of first frame : 10:45:37:10
Time code source : Group of pictures header
GOP, Open/Closed : Open
Color primaries : BT.601 NTSC
Transfer characteristics : BT.601
Matrix coefficients : BT.601

Audio
ID : 189 (0xBD)-128 (0x80)
Format : AC-3
Format/Info : Audio Coding 3
Mode extension : CM (complete main)
Format settings, Endianness : Big
Muxing mode : DVD-Video
Bit rate mode : Constant
Bit rate : 224 kb/s
Channel(s) : 2 channels
Channel positions : Front: L R
Sampling rate : 48.0 kHz
Frame rate : 31.250 FPS (1536 spf)
Compression mode : Lossy
Delay relative to video : -94 ms

Text #1
ID : 189 (0xBD)-32 (0x20)
Format : RLE
Format/Info : Run-length encoding
Muxing mode : DVD-Video
Delay relative to video : 2 s 603 ms

Text #2
ID : 189 (0xBD)-33 (0x21)
Format : RLE
Format/Info : Run-length encoding
Muxing mode : DVD-Video
Delay relative to video : 2 s 636 ms

Text #3
ID : 189 (0xBD)-34 (0x22)
Format : RLE
Format/Info : Run-length encoding
Muxing mode : DVD-Video
Delay relative to video : 2 s 636 ms

Text #4
ID : 189 (0xBD)-35 (0x23)
Format : RLE
Format/Info : Run-length encoding
Muxing mode : DVD-Video
Delay relative to video : 2 s 636 ms

Text #5
ID : 189 (0xBD)-36 (0x24)
Format : RLE
Format/Info : Run-length encoding
Muxing mode : DVD-Video
Delay relative to video : 2 s 636 ms

Text #6
ID : 189 (0xBD)-37 (0x25)
Format : RLE
Format/Info : Run-length encoding
Muxing mode : DVD-Video
Delay relative to video : 2 s 636 ms

Menu

General
Complete name : C:UsersgguDesktopgguBob.Marley.The.Legend.Live.2016.BONUS.NTSC.DVD9.MDVDR-D2HVDVGET_UP_STAND_UPVIDEO_TSVTS_02_4.VOB
Format : MPEG-PS
File size : 101 MiB
Duration : 2 min
Overall bit rate mode : Variable
Overall bit rate : 6 315 kb/s

Video
ID : 224 (0xE0)
Format : MPEG Video
Format version : Version 2
Format profile : Main@Main
Format settings, BVOP : Yes
Format settings, Matrix : Default
Format settings, GOP : M=3, N=26
Format settings, picture structure : Field
Duration : 2 min
Bit rate mode : Variable
Bit rate : 5 965 kb/s
Maximum bit rate : 8 700 kb/s
Width : 720 pixels
Height : 480 pixels
Display aspect ratio : 2.40:1
Frame rate : 29.970 (30000/1001) FPS
Standard : NTSC
Color space : YUV
Chroma subsampling : 4:2:0
Bit depth : 8 bits
Scan type : Interlaced
Scan order : Top Field First
Compression mode : Lossy
Bits/(Pixel*Frame) : 0.576
Time code of first frame : 10:03:53:17
Time code source : Group of pictures header
GOP, Open/Closed : Open
Stream size : 95.7 MiB (94%)
Color primaries : BT.601 NTSC
Transfer characteristics : BT.601
Matrix coefficients : BT.601

Audio
ID : 189 (0xBD)-128 (0x80)
Format : AC-3
Format/Info : Audio Coding 3
Mode extension : CM (complete main)
Format settings, Endianness : Big
Muxing mode : DVD-Video
Duration : 2 min
Bit rate mode : Constant
Bit rate : 224 kb/s
Channel(s) : 2 channels
Channel positions : Front: L R
Sampling rate : 48.0 kHz
Frame rate : 31.250 FPS (1536 spf)
Compression mode : Lossy
Delay relative to video : -136 ms
Stream size : 3.59 MiB (4%)

Menu

Thanks to the original uploader

Bob Marley – The Legend Live – Santa Barbara County Bowl 1979 (2016) [DVD9] Download, Warez, DDL, Free, Full Album, Torrent, Legal.

Download