Bob Dylan – Slow Train Coming (1979) | ViralVideoPk

Daily Dose of Free Downloads

Bob Dylan – Slow Train Coming (1979)

Download

Bob Dylan - Slow Train Coming (1979)

Bob Dylan – Slow Train Coming (1979)
EAC | Flac(Image) + Cue + Log & MP3 CBR 320Kbps
1989 | Columbia, CD 32524 | ~ 266 or 110 Mb | Scans(jpg) -> 78 Mb
Folk Rock

Perhaps it was inevitable that Bob Dylan would change direction at the end of the ’70s, since he had dabbled in everything from full-on repudiation of his legacy to a quiet embrace of it, to dipping his toe into pure showmanship. Nobody really could have expected that he would turn to Christianity on Slow Train Coming, embracing a born-again philosophy with enthusiasm. He has no problem in believing in a vengeful god – you gotta serve somebody, after all – and this is pure brimstone and fire throughout the record, even on such lovely testimonials as "I Believe in You." The unexpected side effect of his conversion is that it gave Dylan a focus he hadn’t had since Blood on the Tracks, and his concentration carries over to the music, which is lean and direct in a way that he hadn’t been since, well, Blood on the Tracks. Focus isn’t necessarily the same thing as consistency, and this does suffer from being a bit too dogmatic, not just in its religion, but in its musical approach. Still, it’s hard to deny Dylan’s revitalized sound here, and the result is a modest success that at least works on its own terms.

by Stephen Thomas Erlewine, allmusic

Bob Dylan - Slow Train Coming (1979)

Bob Dylan at Wiki | Bob Dylan at Discogs | Bob Dylan at Allmusic | Bob Dylan HomePage

***********

Bob Dylan – Slow Train Coming (1979):

Bob Dylan - Slow Train Coming (1979)

Tracklist:

01. Gotta Serve Somebody [05:25]
02. Precious Angel [06:30]
03. I Believe In You [05:05]
04. Slow Train [05:59]
05. Gonna Change My Way Of Thinking [05:28]
06. Do Right To Me Baby (Do Unto Others) [03:53]
07. When You Gonna Wake Up [05:28]
08. Man Gave Names To All The Animals [04:26]
09. When He Returns [04:30]

EAC Log
Exact Audio Copy V0.99 prebeta 5 from 4. May 2009

EAC extraction logfile from 29. January 2015, 14:23

BOB DYLAN / Slow Train Coming ( CD 32524 )

Used drive : ASUS DRW-24B3ST Adapter: 1 ID: 0

Read mode : Secure
Utilize accurate stream : Yes
Defeat audio cache : Yes
Make use of C2 pointers : No

Read offset correction : 6
Overread into Lead-In and Lead-Out : No
Fill up missing offset samples with silence : Yes
Delete leading and trailing silent blocks : No
Null samples used in CRC calculations : Yes
Used interface : Native Win32 interface for Win NT & 2000

Used output format : User Defined Encoder
Selected bitrate : 1024 kBit/s
Quality : High
Add ID3 tag : No
Command line compressor : C:Program Files (x86)EACWVwavpack.exe
Additional command line options : -h -hh -m %s %d

TOC of the extracted CD

Track | Start | Length | Start sector | End sector
––––––––––––––––––––––––––––-
1 | 0:00.00 | 5:25.00 | 0 | 24374
2 | 5:25.00 | 6:30.00 | 24375 | 53624
3 | 11:55.00 | 5:05.00 | 53625 | 76499
4 | 17:00.00 | 5:59.00 | 76500 | 103424
5 | 22:59.00 | 5:28.00 | 103425 | 128024
6 | 28:27.00 | 3:53.00 | 128025 | 145499
7 | 32:20.00 | 5:28.00 | 145500 | 170099
8 | 37:48.00 | 4:26.00 | 170100 | 190049
9 | 42:14.00 | 4:30.15 | 190050 | 210314

Range status and errors

Selected range

Filename W:BOB DYLANBOB DYLAN – Slow Train Coming (1979) (AT 1989 Columbia Records • CD 32524)BOB DYLAN – Slow Train Coming ( CD 32524 ).wav

Peak level 100.0 %
Range quality 100.0 %
Test CRC E4A9DDBE
Copy CRC E4A9DDBE
Copy OK

No errors occurred

AccurateRip summary

Track 1 accurately ripped (confidence 22) [74704590]
Track 2 accurately ripped (confidence 23) [8BB6CAED]
Track 3 accurately ripped (confidence 23) [6DBAB288]
Track 4 accurately ripped (confidence 23) [9D097A72]
Track 5 accurately ripped (confidence 23) [0A6FD921]
Track 6 accurately ripped (confidence 23) [DFB70CB4]
Track 7 accurately ripped (confidence 23) [95E72FE2]
Track 8 accurately ripped (confidence 23) [91769C14]
Track 9 accurately ripped (confidence 23) [2D633162]

All tracks accurately ripped

End of status report

DR Log
foobar2000 1.2.9 / Dynamic Range Meter 1.1.1
log date: 2016-12-25 01:13:39

––––––––––––––––––––––––––––––––––––––––
Analyzed: BOB DYLAN / Slow Train Coming ( CD 32524 )
––––––––––––––––––––––––––––––––––––––––

DR Peak RMS Duration Track
––––––––––––––––––––––––––––––––––––––––
DR14 0.00 dB -17.45 dB 5:25 01-Gotta Serve Somebody
DR14 -0.38 dB -17.32 dB 6:30 02-Precious Angel
DR15 -0.26 dB -20.83 dB 5:05 03-I Believe In You
DR15 0.00 dB -17.67 dB 5:59 04-Slow Train
DR15 -0.91 dB -18.05 dB 5:28 05-Gonna Change My Way Of Thinking
DR15 -2.05 dB -21.13 dB 3:53 06-Do Right To Me Baby (Do Unto Others)
DR14 -0.10 dB -17.40 dB 5:28 07-When You Gonna Wake Up
DR17 -0.72 dB -20.95 dB 4:26 08-Man Gave Names To All The Animals
DR15 -2.53 dB -22.44 dB 4:30 09-When He Returns
––––––––––––––––––––––––––––––––––––––––

Number of tracks: 9
Official DR value: DR15

Samplerate: 44100 Hz
Channels: 2
Bits per sample: 16
Bitrate: 773 kbps
Codec: FLAC

CUETools Log
[CUETools log; Date: 25.12.2016 1:13:29; Version: 2.1.4]
[CTDB TOCID: b2dSVHgBKCp2gEU0g4kpzY279HQ-] found.
Track | CTDB Status
1 | (166/169) Accurately ripped
2 | (168/169) Accurately ripped
3 | (167/169) Accurately ripped
4 | (167/169) Accurately ripped
5 | (166/169) Accurately ripped
6 | (166/169) Accurately ripped
7 | (166/169) Accurately ripped
8 | (168/169) Accurately ripped
9 | (167/169) Accurately ripped
[AccurateRip ID: 0010d05b-0079f9c9-6b0af409] found.
Track [ CRC | V2 ] Status
01 [74704590|dc1805be] (022+027/159) Accurately ripped
02 [8bb6caed|9a16b362] (023+026/161) Accurately ripped
03 [6dbab288|1842a6a0] (023+026/162) Accurately ripped
04 [9d097a72|73370cdf] (023+025/160) Accurately ripped
05 [0a6fd921|3af9eeef] (023+026/161) Accurately ripped
06 [dfb70cb4|f3c2387d] (023+026/161) Accurately ripped
07 [95e72fe2|700d8c03] (023+025/159) Accurately ripped
08 [91769c14|c853b144] (023+025/158) Accurately ripped
09 [2d633162|bf2d492e] (023+025/157) Accurately ripped
Offsetted by -950:
01 [896a840c] (022/159) Accurately ripped
02 [984d8261] (022/161) Accurately ripped
03 [003a278a] (022/162) Accurately ripped
04 [75f8f564] (022/160) Accurately ripped
05 [07bd10b3] (022/161) Accurately ripped
06 [629fc4d6] (022/161) Accurately ripped
07 [1cba8f62] (022/159) Accurately ripped
08 [451393aa] (021/158) Accurately ripped
09 [3848b1de] (022/157) Accurately ripped
Offsetted by 2040:
01 [a3035e60] (015/159) Accurately ripped
02 [b15ae55d] (015/161) Accurately ripped
03 [cf706920] (015/162) Accurately ripped
04 [97ff244a] (015/160) Accurately ripped
05 [bf63a279] (015/161) Accurately ripped
06 [75c350cc] (015/161) Accurately ripped
07 [f30909e2] (015/159) Accurately ripped
08 [25535a9c] (015/158) Accurately ripped
09 [9a07e232] (015/157) Accurately ripped
Offsetted by 2903:
01 [cc0ca3ba] (008/159) Accurately ripped
02 [b83e4f6b] (008/161) Accurately ripped
03 [325fcad3] (008/162) Accurately ripped
04 [7be34d65] (008/160) Accurately ripped
05 [f7bc3584] (008/161) Accurately ripped
06 [0189822f] (008/161) Accurately ripped
07 [d3e88d22] (008/159) Accurately ripped
08 [1956020d] (008/158) Accurately ripped
09 [647a3a8c] (008/157) Accurately ripped
Offsetted by 1381:
01 [7ea2684e] (002/159) Accurately ripped
02 [47d4b127] (002/161) Accurately ripped
03 [c3133349] (002/162) Accurately ripped
04 [cd338c2b] (002/160) Accurately ripped
05 [e5f03d2a] (002/161) Accurately ripped
06 [9297f305] (002/161) Accurately ripped
07 [b5134fa2] (000/159) No match (V2 was not tested)
08 [734d2c9f] (002/158) Accurately ripped
09 [c0d93520] (002/157) Accurately ripped

Track Peak [ CRC32 ] [W/O NULL] [ LOG ]
– 100,0 [E4A9DDBE] [0E59A8E8] CRC32
01 100,0 [607E7D7E] [ED3C43CB]
02 95,6 [B6B54FC1] [DF1B0B5B]
03 97,0 [3BD651C4] [94715BF3]
04 100,0 [388F8212] [037CA858]
05 90,0 [69527684] [F18DF598]
06 78,9 [875D3300] [81EAE4C3]
07 98,8 [CD638FB7] [7964DDE1]
08 92,0 [0CCF92E1] [151F5EA2]
09 74,7 [AD17A98D] [6286492C]

Bob Dylan - Slow Train Coming (1979)

All thanks go to the original releaser

Bob Dylan in my Blog

Download Bob Dylan – Slow Train Coming (1979):

Bob Dylan – Slow Train Coming (1979) Download, Warez, DDL, Free, Full Album, Torrent, Legal.

Download


  • Recent Posts

  • Recent Tags