Bob Dylan – Highway 61 Revisited (1965) | ViralVideoPk

Daily Dose of Free Downloads

Bob Dylan – Highway 61 Revisited (1965)

Download

Bob Dylan - Highway 61 Revisited (1965)

Bob Dylan – Highway 61 Revisited (1965)
EAC | Flac(Image) + Cue + Log & MP3 CBR 320Kbps
1984 | CBS, CDCBS 62572 | ~ 340 or 122 Mb | Scans(jpg) -> 69 Mb
Folk Rock

Taking the first, electric side of Bringing It All Back Home to its logical conclusion, Bob Dylan hired a full rock & roll band, featuring guitarist Michael Bloomfield, for Highway 61 Revisited. Opening with the epic "Like a Rolling Stone," Highway 61 Revisited careens through nine songs that range from reflective folk-rock ("Desolation Row") and blues ("It Takes a Lot to Laugh, It Takes a Train to Cry") to flat-out garage rock ("Tombstone Blues," "From a Buick 6," "Highway 61 Revisited"). Dylan had not only changed his sound, but his persona, trading the folk troubadour for a streetwise, cynical hipster. Throughout the album, he embraces druggy, surreal imagery, which can either have a sense of menace or beauty, and the music reflects that, jumping between soothing melodies to hard, bluesy rock. And that is the most revolutionary thing about Highway 61 Revisited – it proved that rock & roll needn’t be collegiate and tame in order to be literate, poetic, and complex.

by Stephen Thomas Erlewine, allmusic

Bob Dylan - Highway 61 Revisited (1965)

Bob Dylan at Wiki | Bob Dylan at Discogs | Bob Dylan at Allmusic | Bob Dylan HomePage

***********

Bob Dylan – Highway 61 Revisited (1965):

Bob Dylan - Highway 61 Revisited (1965)

Tracklist:

01. Like A Rolling Stone [06:13]
02. Tombstone Blues [06:00]
03. It Takes A Lot To Laugh, It Takes A Train To Cry [04:09]
04. From A Buick 6 [03:18]
05. Ballad Of A Thin Man [05:58]
06. Queen Jane Approximately [05:31]
07. Highway 61 Revisited [03:30]
08. Just Like Tom Thumb’s Blues [05:32]
09. Desolation Row [11:23]

EAC Log
Exact Audio Copy V0.99 prebeta 5 from 4. May 2009

EAC extraction logfile from 27. January 2015, 21:19

BOB DYLAN / Highway 61 Revisited ( CDCBS 62572 )

Used drive : ASUS DRW-24B3ST Adapter: 1 ID: 0

Read mode : Secure
Utilize accurate stream : Yes
Defeat audio cache : Yes
Make use of C2 pointers : No

Read offset correction : 6
Overread into Lead-In and Lead-Out : No
Fill up missing offset samples with silence : Yes
Delete leading and trailing silent blocks : No
Null samples used in CRC calculations : Yes
Used interface : Native Win32 interface for Win NT & 2000

Used output format : User Defined Encoder
Selected bitrate : 1024 kBit/s
Quality : High
Add ID3 tag : No
Command line compressor : C:Program Files (x86)EACWVwavpack.exe
Additional command line options : -h -hh -m %s %d

TOC of the extracted CD

Track | Start | Length | Start sector | End sector
––––––––––––––––––––––––––––-
1 | 0:00.00 | 6:13.30 | 0 | 28004
2 | 6:13.30 | 6:00.45 | 28005 | 55049
3 | 12:14.00 | 4:09.00 | 55050 | 73724
4 | 16:23.00 | 3:18.70 | 73725 | 88644
5 | 19:41.70 | 5:58.62 | 88645 | 115556
6 | 25:40.57 | 5:31.48 | 115557 | 140429
7 | 31:12.30 | 3:30.32 | 140430 | 156211
8 | 34:42.62 | 5:32.13 | 156212 | 181124
9 | 40:15.00 | 11:23.55 | 181125 | 232404

Range status and errors

Selected range

Filename W:BOB DYLANBOB DYLAN – Highway 61 Revisited (1965) (NL 1984 CBS Records • CDCBS 62572)BOB DYLAN – Highway 61 Revisited ( CDCBS 62572 ).wav

Peak level 99.1 %
Range quality 100.0 %
Test CRC 26FCD5E3
Copy CRC 26FCD5E3
Copy OK

No errors occurred

AccurateRip summary

Track 1 accurately ripped (confidence 36) [A2603C94]
Track 2 accurately ripped (confidence 37) [E2BE953C]
Track 3 accurately ripped (confidence 37) [E7EFA0CD]
Track 4 accurately ripped (confidence 38) [C1CD7AEB]
Track 5 accurately ripped (confidence 38) [8BCFBAF4]
Track 6 accurately ripped (confidence 38) [62BEDB5B]
Track 7 accurately ripped (confidence 38) [1E4B7CB2]
Track 8 accurately ripped (confidence 38) [E3968842]
Track 9 accurately ripped (confidence 38) [857D93A4]

All tracks accurately ripped

End of status report

DR Log
foobar2000 1.2.9 / Dynamic Range Meter 1.1.1
log date: 2016-12-31 10:02:34

––––––––––––––––––––––––––––––––––––––––
Analyzed: BOB DYLAN / Highway 61 Revisited ( CDCBS 62572 )
––––––––––––––––––––––––––––––––––––––––

DR Peak RMS Duration Track
––––––––––––––––––––––––––––––––––––––––
DR10 -0.31 dB -12.42 dB 6:13 01-Like A Rolling Stone
DR10 -0.53 dB -12.42 dB 6:01 02-Tombstone Blues
DR9 -0.86 dB -13.28 dB 4:09 03-It Takes A Lot To Laugh, It Takes A Train To Cry
DR10 -1.28 dB -13.01 dB 3:19 04-From A Buick 6
DR11 -0.08 dB -13.29 dB 5:59 05-Ballad Of A Thin Man
DR9 -1.65 dB -12.96 dB 5:32 06-Queen Jane Approximately
DR11 -1.16 dB -14.49 dB 3:30 07-Highway 61 Revisited
DR10 -1.89 dB -14.41 dB 5:32 08-Just Like Tom Thumb’s Blues
DR10 -1.33 dB -13.59 dB 11:24 09-Desolation Row
––––––––––––––––––––––––––––––––––––––––

Number of tracks: 9
Official DR value: DR10

Samplerate: 44100 Hz
Channels: 2
Bits per sample: 16
Bitrate: 894 kbps
Codec: FLAC

CUETools Log
[CUETools log; Date: 31.12.2016 10:02:24; Version: 2.1.4]
[CTDB TOCID: ddhq3DKzlGnkkiXhGZfK5AFmcdI-] found.
Track | CTDB Status
1 | (225/230) Accurately ripped
2 | (228/230) Accurately ripped
3 | (228/230) Accurately ripped
4 | (227/230) Accurately ripped
5 | (227/230) Accurately ripped
6 | (228/230) Accurately ripped
7 | (227/230) Accurately ripped
8 | (226/230) Accurately ripped
9 | (226/230) Accurately ripped
[AccurateRip ID: 00105832-00779f15-800c1a09] found.
Track [ CRC | V2 ] Status
01 [a2603c94|00241706] (036+022/307) Accurately ripped
02 [e2be953c|fd15559a] (037+022/307) Accurately ripped
03 [e7efa0cd|e33d526d] (037+021/307) Accurately ripped
04 [c1cd7aeb|afdc6b3f] (038+021/308) Accurately ripped
05 [8bcfbaf4|b1220707] (038+021/305) Accurately ripped
06 [62bedb5b|0c4586bc] (038+022/311) Accurately ripped
07 [1e4b7cb2|f83c6315] (038+021/308) Accurately ripped
08 [e3968842|a24c3b94] (038+022/304) Accurately ripped
09 [857d93a4|084851f9] (038+022/295) Accurately ripped
Offsetted by -1748:
01 [9d619444] (006/307) Accurately ripped
02 [44ca07bf] (006/307) Accurately ripped
03 [f5271ce3] (006/307) Accurately ripped
04 [ddff0f35] (006/308) Accurately ripped
05 [20e933c9] (006/305) Accurately ripped
06 [dc9938b8] (006/311) Accurately ripped
07 [45570269] (006/308) Accurately ripped
08 [cd7ca742] (006/304) Accurately ripped
09 [391967fc] (006/295) Accurately ripped
Offsetted by -1220:
01 [eb098866] (027/307) Accurately ripped
02 [78e31e70] (025/307) Accurately ripped
03 [cca26a96] (026/307) Accurately ripped
04 [eaa4e8ed] (026/308) Accurately ripped
05 [a4a1552d] (026/305) Accurately ripped
06 [0184b433] (028/311) Accurately ripped
07 [22e14adc] (026/308) Accurately ripped
08 [eeee6fe2] (027/304) Accurately ripped
09 [401613dc] (023/295) Accurately ripped
Offsetted by -1088:
01 [b2945790] (030/307) Accurately ripped
02 [d4adeb52] (031/307) Accurately ripped
03 [e34e0740] (031/307) Accurately ripped
04 [f6fba9d2] (032/308) Accurately ripped
05 [16d8894f] (030/305) Accurately ripped
06 [0266e0ae] (030/311) Accurately ripped
07 [90c8c47d] (029/308) Accurately ripped
08 [f09057db] (030/304) Accurately ripped
09 [9620dbde] (027/295) Accurately ripped
Offsetted by -857:
01 [d9d4fc4e] (010/307) Accurately ripped
02 [01d02b8e] (011/307) Accurately ripped
03 [e9343386] (011/307) Accurately ripped
04 [6da1186d] (011/308) Accurately ripped
05 [60924bf2] (011/305) Accurately ripped
06 [6d28119f] (011/311) Accurately ripped
07 [7453cb32] (011/308) Accurately ripped
08 [8969aec7] (011/304) Accurately ripped
09 [8a3b85e7] (010/295) Accurately ripped
Offsetted by -139:
01 [08839f05] (027/307) Accurately ripped
02 [1923b5e2] (028/307) Accurately ripped
03 [3fc6107a] (028/307) Accurately ripped
04 [71cd88f9] (028/308) Accurately ripped
05 [8a7826eb] (027/305) Accurately ripped
06 [f15c833e] (028/311) Accurately ripped
07 [b913006c] (028/308) Accurately ripped
08 [463e9a3b] (028/304) Accurately ripped
09 [75ec5098] (028/295) Accurately ripped
Offsetted by -98:
01 [aef3fa8b] (002/307) Accurately ripped
02 [9a82ec45] (002/307) Accurately ripped
03 [99c192df] (002/307) Accurately ripped
04 [91de10a7] (002/308) Accurately ripped
05 [87941dfb] (002/305) Accurately ripped
06 [de1f79fb] (002/311) Accurately ripped
07 [49a4268b] (002/308) Accurately ripped
08 [448e1267] (002/304) Accurately ripped
09 [64623a33] (002/295) Accurately ripped
Offsetted by 136:
01 [c22d4cd5] (020/307) Accurately ripped
02 [0d64b45e] (019/307) Accurately ripped
03 [2a4a6c88] (019/307) Accurately ripped
04 [563d7655] (018/308) Accurately ripped
05 [7c466cd4] (019/305) Accurately ripped
06 [1f1d58fa] (019/311) Accurately ripped
07 [1bed43bc] (019/308) Accurately ripped
08 [ba87f7d6] (018/304) Accurately ripped
09 [a79c8ee3] (018/295) Accurately ripped
Offsetted by 525:
01 [3547de98] (002/307) Accurately ripped
02 [09a97b74] (002/307) Accurately ripped
03 [0971dc40] (002/307) Accurately ripped
04 [24cd2bf9] (002/308) Accurately ripped
05 [1b90970b] (002/305) Accurately ripped
06 [b912574a] (002/311) Accurately ripped
07 [d1012ac1] (002/308) Accurately ripped
08 [bef8687b] (002/304) Accurately ripped
09 [ed1a156c] (002/295) Accurately ripped
Offsetted by 548:
01 [077acbd2] (004/307) Accurately ripped
02 [db77df48] (004/307) Accurately ripped
03 [4e7f64e4] (004/307) Accurately ripped
04 [dde54278] (004/308) Accurately ripped
05 [211cd61d] (004/305) Accurately ripped
06 [17d87134] (004/311) Accurately ripped
07 [949c8e66] (004/308) Accurately ripped
08 [25af5cd6] (004/304) Accurately ripped
09 [6f3e29cc] (004/295) Accurately ripped

Track Peak [ CRC32 ] [W/O NULL] [ LOG ]
– 99,1 [26FCD5E3] [E45C0394] CRC32
01 96,4 [9846B8D3] [F76FC4C5]
02 94,0 [C4D65401] [FDACFC8C]
03 90,5 [E4C26588] [026A76C8]
04 86,2 [11E92E29] [ADFDB1D3]
05 99,1 [8E1DC9E6] [99DB991B]
06 82,6 [99B38431] [02B0D16B]
07 87,5 [B6C2F938] [D8D535F9]
08 80,4 [5532E308] [F601FC8A]
09 85,7 [C2DD58D6] [BA875DB1]

Bob Dylan - Highway 61 Revisited (1965)

All thanks go to the original releaser

Bob Dylan in my Blog

Download Bob Dylan – Highway 61 Revisited (1965):

Bob Dylan – Highway 61 Revisited (1965) Download, Warez, DDL, Free, Full Album, Torrent, Legal.

Download


  • Recent Posts

  • Recent Tags