Bob Dylan – Desire (1976)

Download
Bob Dylan - Desire (1976)

Bob Dylan – Desire (1976)
EAC | Flac(Image) + Cue + Log & MP3 CBR 320Kbps
1989 | Columbia, CD 32570 | ~ 363 or 132 Mb | Scans(png) -> 196 Mb
Folk Rock

If Blood on the Tracks was an unapologetically intimate affair, Desire is unwieldy and messy, the deliberate work of a collective. And while Bob Dylan directly addresses his crumbling relationship with his wife, Sara, on the final track, Desire is hardly as personal as its predecessor, finding Dylan returning to topical songwriting and folk tales for the core of the record. It’s all over the map, as far as songwriting goes, and so is it musically, capturing Dylan at the beginning of the Rolling Thunder Revue era, which was more notable for its chaos than its music. And, so it’s only fitting that Desire fits that description as well, as it careens between surging folk-rock, Mideastern dirges, skipping pop, and epic narratives. It’s little surprise that Desire doesn’t quite gel, yet it retains its own character – really, there’s no other place where Dylan tried as many different styles, as many weird detours, as he does here. And, there’s something to be said for its rambling, sprawling character, which has a charm of its own. Even so, the record would have been assisted by a more consistent set of songs; there are some masterpieces here, though: "Hurricane" is the best-known, but the effervescent "Mozambique" is Dylan at his breeziest, "Sara" at his most nakedly emotional, and "Isis" is one of his very best songs of the ’70s, a hypnotic, contemporized spin on a classic fable. This may not add up to a masterpiece, but it does result in one of his most fascinating records of the ’70s and ’80s – more intriguing, lyrically and musically, than most of his latter-day affairs.

by Stephen Thomas Erlewine, allmusic

Bob Dylan - Desire (1976)

Bob Dylan at Wiki | Bob Dylan at Discogs | Bob Dylan at Allmusic | Bob Dylan HomePage

***********

Bob Dylan – Desire (1976):

Bob Dylan - Desire (1976)

Tracklist:

01. Hurricane [08:32]
02. Isis [06:58]
03. Mozambique [03:01]
04. One More Cup Of Coffee [03:46]
05. Oh, Sister [04:04]
06. Joey [11:05]
07. Romance In Durango [05:43]
08. Black Diamond Bay [07:30]
09. Sara [05:30]

EAC Log
Exact Audio Copy V0.99 prebeta 5 from 4. May 2009

EAC extraction logfile from 28. January 2015, 17:06

BOB DYLAN / Desire ( CD 32570 )

Used drive : ASUS DRW-24B3ST Adapter: 0 ID: 0

Read mode : Secure
Utilize accurate stream : Yes
Defeat audio cache : Yes
Make use of C2 pointers : No

Read offset correction : 6
Overread into Lead-In and Lead-Out : No
Fill up missing offset samples with silence : Yes
Delete leading and trailing silent blocks : No
Null samples used in CRC calculations : Yes
Used interface : Native Win32 interface for Win NT & 2000

Used output format : User Defined Encoder
Selected bitrate : 1024 kBit/s
Quality : High
Add ID3 tag : No
Command line compressor : C:Program Files (x86)EACWVwavpack.exe
Additional command line options : -h -hh -m %s %d

TOC of the extracted CD

Track | Start | Length | Start sector | End sector
––––––––––––––––––––––––––––-
1 | 0:00.00 | 8:32.00 | 0 | 38399
2 | 8:32.00 | 6:58.70 | 38400 | 69819
3 | 15:30.70 | 3:01.32 | 69820 | 83426
4 | 18:32.27 | 3:46.13 | 83427 | 100389
5 | 22:18.40 | 4:04.02 | 100390 | 118691
6 | 26:22.42 | 11:05.20 | 118692 | 168586
7 | 37:27.62 | 5:43.55 | 168587 | 194366
8 | 43:11.42 | 7:30.43 | 194367 | 228159
9 | 50:42.10 | 5:30.65 | 228160 | 252974

Range status and errors

Selected range

Filename W:BOB DYLANBOB DYLAN – Desire (1976) (AT 1989 Columbia Records • CD 32570)BOB DYLAN – Desire ( CD 32570 ).wav

Peak level 80.2 %
Range quality 100.0 %
Test CRC 2E631121
Copy CRC 2E631121
Copy OK

No errors occurred

AccurateRip summary

Track 1 accurately ripped (confidence 49) [D9BD84A6]
Track 2 accurately ripped (confidence 49) [165D6D2B]
Track 3 accurately ripped (confidence 53) [36A25B43]
Track 4 accurately ripped (confidence 50) [5A8CDBFC]
Track 5 accurately ripped (confidence 50) [D4F81C15]
Track 6 accurately ripped (confidence 50) [E3F4C365]
Track 7 accurately ripped (confidence 50) [3C8D5EEA]
Track 8 accurately ripped (confidence 48) [E2E03D0B]
Track 9 accurately ripped (confidence 49) [416D261D]

All tracks accurately ripped

End of status report

DR Log
foobar2000 1.2.9 / Dynamic Range Meter 1.1.1
log date: 2017-02-15 03:35:14

––––––––––––––––––––––––––––––––––––––––
Analyzed: BOB DYLAN / Desire ( CD 32570 )
––––––––––––––––––––––––––––––––––––––––

DR Peak RMS Duration Track
––––––––––––––––––––––––––––––––––––––––
DR12 -2.69 dB -16.41 dB 8:32 01-Hurricane
DR12 -2.15 dB -15.55 dB 6:59 02-Isis
DR12 -1.91 dB -16.81 dB 3:01 03-Mozambique
DR13 -2.24 dB -17.13 dB 3:46 04-One More Cup Of Coffee
DR12 -3.43 dB -17.81 dB 4:04 05-Oh, Sister
DR11 -2.44 dB -15.89 dB 11:05 06-Joey
DR11 -3.48 dB -15.60 dB 5:44 07-Romance In Durango
DR11 -3.32 dB -15.81 dB 7:31 08-Black Diamond Bay
DR11 -2.94 dB -15.31 dB 5:31 09-Sara
––––––––––––––––––––––––––––––––––––––––

Number of tracks: 9
Official DR value: DR12

Samplerate: 44100 Hz
Channels: 2
Bits per sample: 16
Bitrate: 876 kbps
Codec: FLAC

CUETools Log
[CUETools log; Date: 15.02.2017 3:35:04; Version: 2.1.4]
[CTDB TOCID: Kao9YdIUH3azsIGS4IifxuHC1o4-] found.
Track | CTDB Status
1 | (429/440) Accurately ripped
2 | (429/440) Accurately ripped
3 | (428/440) Accurately ripped
4 | (430/440) Accurately ripped
5 | (428/440) Accurately ripped
6 | (427/440) Accurately ripped
7 | (428/440) Accurately ripped
8 | (428/440) Accurately ripped
9 | (430/440) Accurately ripped
[AccurateRip ID: 001325a2-008ba732-6a0d2d09] found.
Track [ CRC | V2 ] Status
01 [d9bd84a6|3ade9274] (049+056/461) Accurately ripped
02 [165d6d2b|68499fed] (049+056/460) Accurately ripped
03 [36a25b43|8750eaac] (053+056/467) Accurately ripped
04 [5a8cdbfc|63ae26b1] (050+056/465) Accurately ripped
05 [d4f81c15|cbce7349] (050+056/460) Accurately ripped
06 [e3f4c365|1593a1ee] (050+056/458) Accurately ripped
07 [3c8d5eea|afa7ba35] (050+056/462) Accurately ripped
08 [e2e03d0b|4313a3f3] (048+056/453) Accurately ripped
09 [416d261d|820d9854] (049+055/454) Accurately ripped
Offsetted by -664:
01 [0eda9256] (009/461) Accurately ripped
02 [9af89ed3] (009/460) Accurately ripped
03 [dc655a73] (009/467) Accurately ripped
04 [21b90e81] (010/465) Accurately ripped
05 [8ab4e859] (009/460) Accurately ripped
06 [304b21a7] (010/458) Accurately ripped
07 [a3d2d8ab] (010/462) Accurately ripped
08 [76751907] (009/453) Accurately ripped
09 [19343bf5] (010/454) Accurately ripped
Offsetted by 859:
01 [09bf31ec] (068/461) Accurately ripped
02 [760e8ab8] (072/460) Accurately ripped
03 [cc6acd39] (070/467) Accurately ripped
04 [00e36b21] (070/465) Accurately ripped
05 [954a640b] (071/460) Accurately ripped
06 [02fb3b87] (070/458) Accurately ripped
07 [7aff061e] (070/462) Accurately ripped
08 [9ce004bd] (069/453) Accurately ripped
09 [db181d3f] (069/454) Accurately ripped
Offsetted by 2668:
01 [ec09ca06] (007/461) Accurately ripped
02 [39570e34] (007/460) Accurately ripped
03 [72b7df6e] (007/467) Accurately ripped
04 [f948900b] (007/465) Accurately ripped
05 [870aee11] (007/460) Accurately ripped
06 [ff31993f] (007/458) Accurately ripped
07 [7ebf6dd0] (007/462) Accurately ripped
08 [36f36e82] (006/453) Accurately ripped
09 [d15467e7] (007/454) Accurately ripped

Track Peak [ CRC32 ] [W/O NULL] [ LOG ]
– 80,2 [2E631121] [17515A42] CRC32
01 73,3 [5F0F4CB1] [C82A5890]
02 78,0 [9D123498] [F8CDC80A]
03 80,2 [27DD32EC] [C1DFC85E]
04 77,2 [AC2EF68B] [0B0C3448]
05 67,3 [67EBED5C] [009A3B3C]
06 75,5 [02692AA6] [0C0E27CE]
07 66,9 [A74129A6] [05C8E9A2]
08 68,2 [4CB724EC] [12C19DAB]
09 71,3 [8BEEFF84] [90DCA798]

Bob Dylan - Desire (1976)

All thanks go to the original releaser

Bob Dylan in my Blog

Download Bob Dylan – Desire (1976):

Bob Dylan – Desire (1976) Download, Warez, DDL, Free, Full Album, Torrent, Legal.

Download