Bob Dylan – Bringing It All Back Home (1965) | ViralVideoPk

Daily Dose of Free Downloads

Bob Dylan – Bringing It All Back Home (1965)

Download

Bob Dylan - Bringing It All Back Home (1965)

Bob Dylan – Bringing It All Back Home (1965)
EAC | Flac(Image) + Cue + Log & MP3 CBR 320Kbps
1989 | Columbia, CD 32344 | ~ 257 or 112 Mb | Scans(jpg) -> 72 Mb
Folk Rock

With Another Side of Bob Dylan, Dylan had begun pushing past folk, and with Bringing It All Back Home, he exploded the boundaries, producing an album of boundless imagination and skill. And it’s not just that he went electric, either, rocking hard on "Subterranean Homesick Blues," "Maggie’s Farm," and "Outlaw Blues"; it’s that he’s exploding with imagination throughout the record. After all, the music on its second side – the nominal folk songs – derive from the same vantage point as the rockers, leaving traditional folk concerns behind and delving deep into the personal. And this isn’t just introspection, either, since the surreal paranoia on "It’s Alright, Ma (I’m Only Bleeding)" and the whimsical poetry of "Mr. Tambourine Man" are individual, yet not personal. And that’s just the tip of the iceberg, really, as he writes uncommonly beautiful love songs ("She Belongs to Me," "Love Minus Zero/No Limit") that sit alongside uncommonly funny fantasias ("On the Road Again," "Bob Dylan’s 115th Dream"). This is the point where Dylan eclipses any conventional sense of folk and rewrites the rules of rock, making it safe for personal expression and poetry, not only making words mean as much as the music, but making the music an extension of the words. A truly remarkable album.

by Stephen Thomas Erlewine, allmusic

Bob Dylan - Bringing It All Back Home (1965)

Bob Dylan at Wiki | Bob Dylan at Discogs | Bob Dylan at Allmusic | Bob Dylan HomePage

***********

Bob Dylan – Bringing It All Back Home (1965):

Bob Dylan - Bringing It All Back Home (1965)

Tracklist:

01. Subterranean Homesick Blues [02:24]
02. She Belongs To Me [02:49]
03. Maggie’s Farm [03:57]
04. Love Minus Zero-No Limit [02:54]
05. Outlaw Blues [03:07]
06. On The Road Again [02:38]
07. Bob Dylan’s 115Th Dream [06:32]
08. Mr. Tambourine Man [05:33]
09. Gates Of Eden [05:43]
10. It’s Alright, Ma (I’m Only Bleeding) [07:32]
11. It’s All Over Now, Baby Blue [04:12]

EAC Log
Exact Audio Copy V0.99 prebeta 5 from 4. May 2009

EAC extraction logfile from 27. January 2015, 21:19

BOB DYLAN / Bringing It All Back Home ( CD 32344 )

Used drive : ASUS DRW-24B3ST Adapter: 0 ID: 0

Read mode : Secure
Utilize accurate stream : Yes
Defeat audio cache : Yes
Make use of C2 pointers : No

Read offset correction : 6
Overread into Lead-In and Lead-Out : No
Fill up missing offset samples with silence : Yes
Delete leading and trailing silent blocks : No
Null samples used in CRC calculations : Yes
Used interface : Native Win32 interface for Win NT & 2000

Used output format : User Defined Encoder
Selected bitrate : 1024 kBit/s
Quality : High
Add ID3 tag : No
Command line compressor : C:Program Files (x86)EACWVwavpack.exe
Additional command line options : -h -hh -m %s %d

TOC of the extracted CD

Track | Start | Length | Start sector | End sector
––––––––––––––––––––––––––––-
1 | 0:00.00 | 2:24.25 | 0 | 10824
2 | 2:24.25 | 2:49.50 | 10825 | 23549
3 | 5:14.00 | 3:57.52 | 23550 | 41376
4 | 9:11.52 | 2:54.05 | 41377 | 54431
5 | 12:05.57 | 3:07.18 | 54432 | 68474
6 | 15:13.00 | 2:38.37 | 68475 | 80361
7 | 17:51.37 | 6:32.50 | 80362 | 109811
8 | 24:24.12 | 5:33.48 | 109812 | 134834
9 | 29:57.60 | 5:43.00 | 134835 | 160559
10 | 35:40.60 | 7:32.07 | 160560 | 194466
11 | 43:12.67 | 4:12.58 | 194467 | 213424

Range status and errors

Selected range

Filename W:BOB DYLANBOB DYLAN – Bringing It All Back Home (1965) (AT 1989 Columbia Records • CD 32344)BOB DYLAN – Bringing It All Back Home ( CD 32344 ).wav

Peak level 95.3 %
Range quality 100.0 %
Test CRC 4849837F
Copy CRC 4849837F
Copy OK

No errors occurred

AccurateRip summary

Track 1 accurately ripped (confidence 65) [B480CE47]
Track 2 accurately ripped (confidence 64) [D9459D4B]
Track 3 accurately ripped (confidence 63) [D41344CA]
Track 4 accurately ripped (confidence 63) [DCAB0AD2]
Track 5 accurately ripped (confidence 63) [81AB31FE]
Track 6 accurately ripped (confidence 64) [D5820F56]
Track 7 accurately ripped (confidence 65) [F62DA49B]
Track 8 accurately ripped (confidence 65) [0A2E9742]
Track 9 accurately ripped (confidence 64) [08152767]
Track 10 accurately ripped (confidence 66) [01B9C960]
Track 11 accurately ripped (confidence 65) [65521EC9]

All tracks accurately ripped

End of status report

DR Log
foobar2000 1.2.9 / Dynamic Range Meter 1.1.1
log date: 2016-12-27 23:28:01

––––––––––––––––––––––––––––––––––––––––
Analyzed: BOB DYLAN / Bringing It All Back Home ( CD 32344 )
––––––––––––––––––––––––––––––––––––––––

DR Peak RMS Duration Track
––––––––––––––––––––––––––––––––––––––––
DR12 -0.42 dB -15.18 dB 2:24 01-Subterranean Homesick Blues
DR14 -0.80 dB -17.33 dB 2:50 02-She Belongs To Me
DR13 -0.60 dB -15.69 dB 3:58 03-Maggie’s Farm
DR14 -0.45 dB -16.56 dB 2:54 04-Love Minus Zero-No Limit
DR13 -1.35 dB -16.31 dB 3:07 05-Outlaw Blues
DR13 -0.44 dB -15.93 dB 2:38 06-On The Road Again
DR13 -0.94 dB -15.39 dB 6:33 07-Bob Dylan’s 115Th Dream
DR13 -1.98 dB -17.72 dB 5:34 08-Mr. Tambourine Man
DR13 -3.57 dB -18.81 dB 5:43 09-Gates Of Eden
DR16 -0.89 dB -19.01 dB 7:32 10-It’s Alright, Ma (I’m Only Bleeding)
DR13 -2.02 dB -19.10 dB 4:13 11-It’s All Over Now, Baby Blue
––––––––––––––––––––––––––––––––––––––––

Number of tracks: 11
Official DR value: DR13

Samplerate: 44100 Hz
Channels: 2
Bits per sample: 16
Bitrate: 736 kbps
Codec: FLAC

CUETools Log
[CUETools log; Date: 27.12.2016 23:27:52; Version: 2.1.4]
[CTDB TOCID: h9V2uqfcMquAhOIgUj17JiqwL5g-] found.
Track | CTDB Status
1 | (273/275) Accurately ripped
2 | (272/275) Accurately ripped
3 | (271/275) Accurately ripped
4 | (271/275) Accurately ripped
5 | (273/275) Accurately ripped
6 | (273/275) Accurately ripped
7 | (272/275) Accurately ripped
8 | (269/275) Accurately ripped, or (2/275) differs in 43 samples @02:51:31-02:51:32
9 | (272/275) Accurately ripped
10 | (272/275) Accurately ripped
11 | (197/275) Accurately ripped, or (40/275) differs in 1600 samples @04:12:39-04:12:41, or (28/275) differs in 1532 samples @04:12:35-04:12:37
[AccurateRip ID: 0010aa18-00971491-960b1d0b] found.
Track [ CRC | V2 ] Status
01 [b480ce47|be24ec74] (065+050/371) Accurately ripped
02 [d9459d4b|f69178d4] (064+049/367) Accurately ripped
03 [d41344ca|ac5b95fb] (063+049/365) Accurately ripped
04 [dcab0ad2|9095e478] (063+049/367) Accurately ripped
05 [81ab31fe|4133dbbe] (063+049/370) Accurately ripped
06 [d5820f56|e926ba80] (064+049/368) Accurately ripped
07 [f62da49b|a7838338] (065+049/365) Accurately ripped
08 [0a2e9742|237ea970] (065+049/369) Accurately ripped
09 [08152767|b2f6d21f] (064+050/369) Accurately ripped
10 [01b9c960|ba402754] (066+048/369) Accurately ripped
11 [65521ec9|54d89ad0] (065+046/364) Accurately ripped
Offsetted by -2252:
01 [383c7017] (011/371) Accurately ripped
02 [afedcdfb] (010/367) Accurately ripped
03 [d99bc7a6] (010/365) Accurately ripped
04 [c0d9184e] (010/367) Accurately ripped
05 [402c8e06] (012/370) Accurately ripped
06 [5ec66506] (010/368) Accurately ripped
07 [bfae8cd7] (010/365) Accurately ripped
08 [f61283d2] (011/369) Accurately ripped
09 [af2e9617] (010/369) Accurately ripped
10 [c7d2fcd0] (011/369) Accurately ripped
11 [3467f690] (010/364) Accurately ripped
Offsetted by -628:
01 [46d2af77] (005/371) Accurately ripped
02 [a717c19b] (005/367) Accurately ripped
03 [c4cb4c2e] (005/365) Accurately ripped
04 [a9421d96] (005/367) Accurately ripped
05 [0f762576] (005/370) Accurately ripped
06 [d17fbea6] (005/368) Accurately ripped
07 [a669b09f] (005/365) Accurately ripped
08 [06d901b2] (005/369) Accurately ripped
09 [c65e2db7] (005/369) Accurately ripped
10 [15803ef0] (005/369) Accurately ripped
11 [a0e5efd2] (005/364) Accurately ripped
Offsetted by -29:
01 [b8d06893] (070/371) Accurately ripped
02 [0292945f] (070/367) Accurately ripped
03 [c6bb9023] (069/365) Accurately ripped
04 [cacdbd03] (070/367) Accurately ripped
05 [ebae73dc] (072/370) Accurately ripped
06 [0a51092a] (071/368) Accurately ripped
07 [88ea4d1c] (068/365) Accurately ripped
08 [3c2b0bde] (071/369) Accurately ripped
09 [3e8696fb] (071/369) Accurately ripped
10 [0e0d8cc4] (068/369) Accurately ripped
11 [7a88c76f] (067/364) Accurately ripped
Offsetted by -957:
01 [42c3b213] (002/371) Accurately ripped
02 [2c3176df] (002/367) Accurately ripped
03 [1bc4fb43] (002/365) Accurately ripped
04 [8f240323] (002/367) Accurately ripped
05 [2c16af9c] (002/370) Accurately ripped
06 [a43043aa] (002/368) Accurately ripped
07 [e07f5d3c] (002/365) Accurately ripped
08 [7bb99f5e] (002/369) Accurately ripped
09 [0cb4897b] (002/369) Accurately ripped
10 [9885f944] (002/369) Accurately ripped
11 [2a1833c9] (000/364) No match (V2 was not tested)
Offsetted by -858:
01 [a6ce6e5f] (020/371) Accurately ripped
02 [cb56dbf3] (019/367) Accurately ripped
03 [c4e7901c] (019/365) Accurately ripped
04 [f843a2d4] (020/367) Accurately ripped
05 [dcaa767a] (019/370) Accurately ripped
06 [8ececb7e] (019/368) Accurately ripped
07 [d9e9ab3d] (019/365) Accurately ripped
08 [2087edfa] (019/369) Accurately ripped
09 [4a05270f] (019/369) Accurately ripped
10 [ac3be2a8] (020/369) Accurately ripped
11 [80ce5a9c] (000/364) No match (V2 was not tested)

Track Peak [ CRC32 ] [W/O NULL] [ LOG ]
– 95,3 [4849837F] [E16C39B8] CRC32
01 95,3 [A61EE33E] [62A863BA]
02 91,1 [758F1600] [97107511]
03 93,3 [66FEAD54] [DAD0FDE7]
04 94,9 [AFE2F9AB] [190FE0CE]
05 85,5 [ADBCD136] [538B35DB]
06 95,0 [753DA961] [5B98D07B]
07 89,7 [F7440196] [728282EE]
08 79,5 [44436035] [348366F1]
09 66,2 [0779F2F5] [30A6373D]
10 90,2 [E69F6000] [BC2358CB]
11 79,2 [15AFF467] [79CBC145]

Bob Dylan - Bringing It All Back Home (1965)

All thanks go to the original releaser

Bob Dylan in my Blog

Download Bob Dylan – Bringing It All Back Home (1965):

Bob Dylan – Bringing It All Back Home (1965) Download, Warez, DDL, Free, Full Album, Torrent, Legal.

Download


  • Recent Posts

  • Recent Tags