Bob Dylan: Bootleg Series Vol. 1-10 (1991 – 2013) Re-up

Download
Bob Dylan: Bootleg Series Vol. 1-10 (1991 - 2013) Re-up

Bob Dylan: Bootleg Series Vol. 1-10 (1991 – 2013)
EAC | Flac(Image) + Cue + Log & MP3 CBR 320Kbps
19CD | Columbia | ~ 7012 or 2856 Mb | Scans(jpg, 600dpi) -> 4092 Mb
Rock / Folk Rock / American Folk

Bob Dylan: Bootleg Series Vol. 1-10 (1991 - 2013) Re-up

CD01-03: Bob Dylan – Bootleg Series Vol. 1-3: Rare & Unreleased 1961-1991 (1991) Repost
EAC | Flac(Image) + Cue + Log & MP3 CBR 320Kbps
2010 | 3CD | Columbia, 88697732882 | ~ 1364 or 544 Mb | Scans(jpg, 600dpi) -> 210 Mb
Rock / Folk Rock / American Folk

This three-disc box set is what Dylanphiles have been waiting for, sitting patiently for years, even decades. And, even after its 1991 release, it retains the feeling of being a special, shared secret among the hardcore, since – no matter the acclaim – it’s the kind of record that only the hardcore will seek out. Of course, the great irony is that even casual Dylan fans will find much to treasure in this three-disc set of unreleased material. They’ll find songs as good as anything that made the records (sometimes surpassing the official releases, especially on the last disc), plus alternate versions (including original versions of songs on Blood on the Tracks) and long-fabled songs, from the incomplete "She’s Your Lover Now" to songs cut from The Freewheelin’ Bob Dylan. This doesn’t just function as an alternate history of Dylan, but as an expansion of Dylan’s history, enriching what is already known about the greatest songwriter of his era – after all, every song here would qualify as the best song on anybody else’s album. And that’s no exaggeration.

by Stephen Thomas Erlewine, AMG

Tracklist CD1:

1-1 Hard Times In New York Town 2:17
1-2 He Was A Friend Of Mine 4:03
1-3 Man On The Street 1:54
1-4 No More Auction Block 3:02
1-5 House Carpenteк 4:08
1-6 Talkin’ Bear Mountain Picnic Massacre Blues 3:44
1-7 Let Me Die In My Footsteps 3:33
1-8 Rambling, Gambling Willie 4:11
1-9 Talkin’ Hava Negeilah Blues 0:50
1-10 Quit Your Low Down Ways 2:37
1-11 Worried Blues 2:37
1-12 Kingsport Town 3:27
1-13 Walkin’ Down The Line 2:52
1-14 Walls Of Red Wing 5:01
1-15 Paths Of Victory 3:17
1-16 Talkin’ John Birch Paranoid Blues 4:24
1-17 Who Killed Davey Moore? 3:08
1-18 Only A Hobo 3:28
1-19 Moonshiner 5:05
1-20 When The Ship Comes In 2:54
1-21 The Times They Are A-Changin’ 2:58
1-22 Last Thoughts On Woody Guthrie 7:08

EAC Log
Exact Audio Copy V0.99 prebeta 5 from 4. May 2009

EAC extraction logfile from 4. May 2013, 19:59

Dylan, Bob / The Bootleg Series Volumes 1-3 (Rare & Unreleased) 1961-1991 [Disc 1]

Used drive : PLEXTOR DVDR PX-L890SA Adapter: 1 ID: 0

Read mode : Secure
Utilize accurate stream : Yes
Defeat audio cache : Yes
Make use of C2 pointers : No

Read offset correction : 6
Overread into Lead-In and Lead-Out : No
Fill up missing offset samples with silence : Yes
Delete leading and trailing silent blocks : No
Null samples used in CRC calculations : Yes
Used interface : Native Win32 interface for Win NT & 2000

Used output format : User Defined Encoder
Selected bitrate : 768 kBit/s
Quality : High
Add ID3 tag : No
Command line compressor : d:Program FilesExact Audio CopyFLACFLAC.EXE
Additional command line options : -T "DATE=%y" -T "GENRE=%m" -8 -V %s

TOC of the extracted CD

Track | Start | Length | Start sector | End sector
––––––––––––––––––––––––––––-
1 | 0:00.00 | 2:18.62 | 0 | 10411
2 | 2:18.62 | 4:03.10 | 10412 | 28646
3 | 6:21.72 | 1:56.30 | 28647 | 37376
4 | 8:18.27 | 3:03.45 | 37377 | 51146
5 | 11:21.72 | 4:08.40 | 51147 | 69786
6 | 15:30.37 | 3:45.15 | 69787 | 86676
7 | 19:15.52 | 3:33.05 | 86677 | 102656
8 | 22:48.57 | 4:13.35 | 102657 | 121666
9 | 27:02.17 | 0:52.18 | 121667 | 125584
10 | 27:54.35 | 2:39.52 | 125585 | 137561
11 | 30:34.12 | 2:39.18 | 137562 | 149504
12 | 33:13.30 | 3:29.05 | 149505 | 165184
13 | 36:42.35 | 2:52.35 | 165185 | 178119
14 | 39:34.70 | 5:05.07 | 178120 | 201001
15 | 44:40.02 | 3:17.35 | 201002 | 215811
16 | 47:57.37 | 4:25.00 | 215812 | 235686
17 | 52:22.37 | 3:09.18 | 235687 | 249879
18 | 55:31.55 | 3:29.62 | 249880 | 265616
19 | 59:01.42 | 5:06.53 | 265617 | 288619
20 | 64:08.20 | 2:55.37 | 288620 | 301781
21 | 67:03.57 | 3:00.68 | 301782 | 315349
22 | 70:04.50 | 7:08.25 | 315350 | 347474

Range status and errors

Selected range

Filename H:MUSICCOLLECTIONBob Dylan1991 The Bootleg Series Volumes 1-3 1961-1991Dylan, Bob – The Bootleg Series Volumes 1-3 [Disc 1].wav

Peak level 96.6 %
Range quality 100.0 %
Test CRC C4EBEFCB
Copy CRC C4EBEFCB
Copy OK

No errors occurred

AccurateRip summary

Track 1 accurately ripped (confidence 11) [0144AED0]
Track 2 accurately ripped (confidence 11) [9F5FBA63]
Track 3 accurately ripped (confidence 11) [D53B04EF]
Track 4 accurately ripped (confidence 11) [23808A9B]
Track 5 accurately ripped (confidence 11) [F143610F]
Track 6 accurately ripped (confidence 11) [BD4A0816]
Track 7 accurately ripped (confidence 11) [5F7F201D]
Track 8 accurately ripped (confidence 11) [6F736985]
Track 9 accurately ripped (confidence 11) [4CEA8500]
Track 10 accurately ripped (confidence 11) [D242A8AC]
Track 11 accurately ripped (confidence 11) [D1B84870]
Track 12 accurately ripped (confidence 11) [84E2605F]
Track 13 accurately ripped (confidence 11) [A365C8D3]
Track 14 accurately ripped (confidence 11) [323F28C8]
Track 15 accurately ripped (confidence 11) [278B2C27]
Track 16 accurately ripped (confidence 11) [9FA8818D]
Track 17 accurately ripped (confidence 11) [E328FB23]
Track 18 accurately ripped (confidence 11) [2202684E]
Track 19 accurately ripped (confidence 11) [B0580047]
Track 20 accurately ripped (confidence 11) [F04DD080]
Track 21 accurately ripped (confidence 11) [886BBD63]
Track 22 accurately ripped (confidence 11) [384BD4F4]

All tracks accurately ripped

End of status report

Tracklist CD2:

2-1 Seven Curses 3:46
2-2 Eternal Circle 2:38
2-3 Suze (The Cough Song) 1:57
2-4 Mama, You Been On My Mind 2:56
2-5 Farewell, Angelina 5:26
2-6 Subterranean Homesick Blues 2:55
2-7 If You Gotta Go, Go Now (Or Else You Got To Stay All Night) 2:54
2-8 Sitting On A Barbed Wire Fence 3:52
2-9 Like A Rolling Stone 1:35
2-10 It Takes A Lot To Laugh, It Takes A Train To Cry 3:21
2-11 I’ll Keep It With Mine 3:38
2-12 She’s Your Lover Now 6:09
2-13 I Shall Be Released 3:54
2-14 Santa-Fe 2:08
2-15 If Not For You 3:32
2-16 Wallflower 2:48
2-17 Nobody ‘Cept You 2:39
2-18 Tangled Up In Blue 6:50
2-19 Call Letter Blues 4:27
2-20 Idiot Wind 8:52

EAC Log
Exact Audio Copy V0.99 prebeta 5 from 4. May 2009

EAC extraction logfile from 4. May 2013, 20:29

Dylan, Bob / The Bootleg Series Volumes 1-3 (Rare & Unreleased) 1961-1991 [Disc 2]

Used drive : PLEXTOR DVDR PX-L890SA Adapter: 1 ID: 0

Read mode : Secure
Utilize accurate stream : Yes
Defeat audio cache : Yes
Make use of C2 pointers : No

Read offset correction : 6
Overread into Lead-In and Lead-Out : No
Fill up missing offset samples with silence : Yes
Delete leading and trailing silent blocks : No
Null samples used in CRC calculations : Yes
Used interface : Native Win32 interface for Win NT & 2000

Used output format : User Defined Encoder
Selected bitrate : 768 kBit/s
Quality : High
Add ID3 tag : No
Command line compressor : d:Program FilesExact Audio CopyFLACFLAC.EXE
Additional command line options : -T "DATE=%y" -T "GENRE=%m" -8 -V %s

TOC of the extracted CD

Track | Start | Length | Start sector | End sector
––––––––––––––––––––––––––––-
1 | 0:00.00 | 3:49.20 | 0 | 17194
2 | 3:49.20 | 2:38.07 | 17195 | 29051
3 | 6:27.27 | 1:58.60 | 29052 | 37961
4 | 8:26.12 | 2:56.45 | 37962 | 51206
5 | 11:22.57 | 5:27.13 | 51207 | 75744
6 | 16:49.70 | 2:56.35 | 75745 | 88979
7 | 19:46.30 | 2:56.32 | 88980 | 102211
8 | 22:42.62 | 3:54.35 | 102212 | 119796
9 | 26:37.22 | 1:36.08 | 119797 | 127004
10 | 28:13.30 | 3:22.70 | 127005 | 142224
11 | 31:36.25 | 3:39.50 | 142225 | 158699
12 | 35:16.00 | 6:10.02 | 158700 | 186451
13 | 41:26.02 | 3:56.33 | 186452 | 204184
14 | 45:22.35 | 2:10.30 | 204185 | 213964
15 | 47:32.65 | 3:33.65 | 213965 | 230004
16 | 51:06.55 | 2:49.25 | 230005 | 242704
17 | 53:56.05 | 2:41.00 | 242705 | 254779
18 | 56:37.05 | 6:51.17 | 254780 | 285621
19 | 63:28.22 | 4:27.18 | 285622 | 305664
20 | 67:55.40 | 8:52.52 | 305665 | 345616

Range status and errors

Selected range

Filename H:MUSICCOLLECTIONBob Dylan1991 The Bootleg Series Volumes 1-3 1961-1991Dylan, Bob – The Bootleg Series Volumes 1-3 [Disc 2].wav

Peak level 98.8 %
Range quality 100.0 %
Test CRC 78E55E5C
Copy CRC 78E55E5C
Copy OK

No errors occurred

AccurateRip summary

Track 1 accurately ripped (confidence 34) [738754AE]
Track 2 accurately ripped (confidence 34) [9D9BBD78]
Track 3 accurately ripped (confidence 33) [68EEAF2F]
Track 4 accurately ripped (confidence 33) [17A12A5E]
Track 5 accurately ripped (confidence 33) [38EB583D]
Track 6 accurately ripped (confidence 33) [6CCDB262]
Track 7 accurately ripped (confidence 33) [68161FE2]
Track 8 accurately ripped (confidence 33) [B76DD0C0]
Track 9 accurately ripped (confidence 33) [58F7E2DC]
Track 10 accurately ripped (confidence 33) [F6BA1301]
Track 11 accurately ripped (confidence 33) [A75F4FD9]
Track 12 accurately ripped (confidence 33) [3DF8C739]
Track 13 accurately ripped (confidence 34) [776B943C]
Track 14 accurately ripped (confidence 33) [13DE8154]
Track 15 accurately ripped (confidence 34) [8CCF6BB8]
Track 16 accurately ripped (confidence 33) [E4EE5A76]
Track 17 accurately ripped (confidence 33) [5509778C]
Track 18 accurately ripped (confidence 32) [50C4DCC1]
Track 19 accurately ripped (confidence 33) [AC885296]
Track 20 accurately ripped (confidence 34) [D2D036C9]

All tracks accurately ripped

End of status report

Tracklist CD3:

3-1 If You See Her, Say Hello 3:44
3-2 Golden Loom 4:25
3-3 Catfish 2:48
3-4 Seven Days 3:59
3-5 Ye Shall Be Changed 4:07
3-6 Every Grain Of Sand 3:37
3-7 You Changed My Life 5:13
3-8 Need A Woman 5:43
3-9 Angelina 6:57
3-10 Someone’s Got A Hold Of My Heart 4:33
3-11 Tell Me 4:24
3-12 Lord Protect My Child 3:56
3-13 Foot Of Pride 5:56
3-14 Blind Willie McTell 5:51
3-15 When The Night Comes Falling From The Sky 5:37
3-16 Series Of Dreams 5:52

EAC Log
Exact Audio Copy V0.99 prebeta 5 from 4. May 2009

EAC extraction logfile from 4. May 2013, 21:32

Dylan, Bob / The Bootleg Series Volumes 1-3 (Rare & Unreleased) 1961-1991 [Disc 3]

Used drive : PLEXTOR DVDR PX-L890SA Adapter: 1 ID: 0

Read mode : Secure
Utilize accurate stream : Yes
Defeat audio cache : Yes
Make use of C2 pointers : No

Read offset correction : 6
Overread into Lead-In and Lead-Out : No
Fill up missing offset samples with silence : Yes
Delete leading and trailing silent blocks : No
Null samples used in CRC calculations : Yes
Used interface : Native Win32 interface for Win NT & 2000

Used output format : User Defined Encoder
Selected bitrate : 768 kBit/s
Quality : High
Add ID3 tag : No
Command line compressor : d:Program FilesExact Audio CopyFLACFLAC.EXE
Additional command line options : -T "DATE=%y" -T "GENRE=%m" -8 -V %s

TOC of the extracted CD

Track | Start | Length | Start sector | End sector
––––––––––––––––––––––––––––-
1 | 0:00.00 | 3:45.55 | 0 | 16929
2 | 3:45.55 | 4:26.55 | 16930 | 36934
3 | 8:12.35 | 2:48.35 | 36935 | 49569
4 | 11:00.70 | 4:00.35 | 49570 | 67604
5 | 15:01.30 | 4:09.15 | 67605 | 86294
6 | 19:10.45 | 3:38.12 | 86295 | 102656
7 | 22:48.57 | 5:14.25 | 102657 | 126231
8 | 28:03.07 | 5:43.48 | 126232 | 152004
9 | 33:46.55 | 6:57.62 | 152005 | 183341
10 | 40:44.42 | 4:33.25 | 183342 | 203841
11 | 45:17.67 | 4:24.40 | 203842 | 223681
12 | 49:42.32 | 3:57.23 | 223682 | 241479
13 | 53:39.55 | 5:57.40 | 241480 | 268294
14 | 59:37.20 | 5:52.37 | 268295 | 294731
15 | 65:29.57 | 5:37.23 | 294732 | 320029
16 | 71:07.05 | 5:52.45 | 320030 | 346474

Range status and errors

Selected range

Filename H:MUSICCOLLECTIONBob Dylan1991 The Bootleg Series Volumes 1-3 1961-1991Dylan, Bob – The Bootleg Series Volumes 1-3 [Disc 3].wav

Peak level 98.8 %
Range quality 99.9 %
Test CRC FB442FB2
Copy CRC FB442FB2
Copy OK

No errors occurred

AccurateRip summary

Track 1 accurately ripped (confidence 11) [6912909D]
Track 2 accurately ripped (confidence 11) [68C942F3]
Track 3 accurately ripped (confidence 11) [7435C3F8]
Track 4 accurately ripped (confidence 11) [D17163AF]
Track 5 accurately ripped (confidence 11) [A002E5DB]
Track 6 accurately ripped (confidence 11) [696DEB0C]
Track 7 accurately ripped (confidence 11) [6142ACAB]
Track 8 accurately ripped (confidence 11) [9FBCA9BA]
Track 9 accurately ripped (confidence 11) [ED923A50]
Track 10 accurately ripped (confidence 11) [E863BE58]
Track 11 accurately ripped (confidence 11) [820F8B13]
Track 12 accurately ripped (confidence 11) [5473161C]
Track 13 accurately ripped (confidence 11) [F7F2321C]
Track 14 accurately ripped (confidence 11) [AD6E7490]
Track 15 accurately ripped (confidence 10) [87D0CD51]
Track 16 accurately ripped (confidence 11) [261711A5]

All tracks accurately ripped

End of status report

===========================

Bob Dylan: Bootleg Series Vol. 1-10 (1991 - 2013) Re-up

CD04-05: Bob Dylan – Bootleg Series Vol. 4: Bob Dylan Live 1966 (1998) Repost
EAC | Flac(Image) + Cue + Log & MP3 CBR 320Kbps
2010 | 2CD | Columbia/Legacy, 88697732892 | ~ 592 or 224 Mb | Scans(jpg, 600dpi) -> 200 Mb
Rock / Folk Rock / American Folk

The most famous bootleg in rock history, with the possible exception of Dylan’s own Basement Tapes, finally makes its official appearance 32 years after the event, and nearly 30 years after it started circulating in the underground. Although often identified as a Royal Albert Hall show, this May 17, 1966, concert, in which Dylan played electric material in front of a British audience, was actually recorded in Manchester (hence the unwieldy title with quotes around "Royal Albert Hall"). Even those who’ve owned this recording for many a year might be tempted by this official package, as it has been expanded into a two-CD set that not only includes the eight electric rock songs from the original bootleg, but also the seven solo acoustic performances that comprised the first half of the show. It’s all in very good fidelity, about as good as any copies you could find through unofficial sources. More importantly, the electric half in particular is an important document of rock history. It captures the point at which Dylan was at his most controversial and hard rocking as he blazes through mid-’60s classics such as "Like a Rolling Stone" and "Ballad of a Thin Man," radical electric arrangements of songs that had originally been recorded acoustically ("One Too Many Mornings," "I Don’t Believe You"), and the hard rocker "Tell Me, Momma," which Dylan never recorded in the studio. The acoustic disc is not as epochal, but on par with the electric half in the quality of material and performance. On top of everything else there’s a 56-page booklet with a fine essay by Dylan’s friend Tony Glover (a notable folk musician in his own right). It’s not just an interesting adjunct to Dylan’s ’60s discography; it’s as worthy of attention as anything else he recorded during that decade.

by Richie Unterberger, AMG

Tracklist CD1:

1-01 She Belongs To Me 3:27
1-02 Fourth Time Around 4:37
1-03 Visions Of Johanna 8:08
1-04 It’s All Over Now, Baby Blue 5:45
1-05 Desolation Row 11:31
1-06 Just Like A Woman 5:52
1-07 Mr. Tambourine Man 8:53

EAC Log
Exact Audio Copy V0.99 prebeta 5 from 4. May 2009

EAC extraction logfile from 28. April 2013, 14:55

Bob Dylan / Live 1966 (CD1)

Used drive : PLEXTOR DVDR PX-L890SA Adapter: 1 ID: 0

Read mode : Secure
Utilize accurate stream : Yes
Defeat audio cache : Yes
Make use of C2 pointers : No

Read offset correction : 6
Overread into Lead-In and Lead-Out : No
Fill up missing offset samples with silence : Yes
Delete leading and trailing silent blocks : No
Null samples used in CRC calculations : Yes
Used interface : Native Win32 interface for Win NT & 2000

Used output format : User Defined Encoder
Selected bitrate : 768 kBit/s
Quality : High
Add ID3 tag : No
Command line compressor : d:Program FilesExact Audio CopyFLACFLAC.EXE
Additional command line options : -T "DATE=%y" -T "GENRE=%m" -8 -V %s

TOC of the extracted CD

Track | Start | Length | Start sector | End sector
––––––––––––––––––––––––––––-
1 | 0:00.00 | 3:27.50 | 0 | 15574
2 | 3:27.50 | 4:37.02 | 15575 | 36351
3 | 8:04.52 | 8:08.43 | 36352 | 72994
4 | 16:13.20 | 5:45.47 | 72995 | 98916
5 | 21:58.67 | 11:31.63 | 98917 | 150804
6 | 33:30.55 | 5:52.27 | 150805 | 177231
7 | 39:23.07 | 8:53.15 | 177232 | 217221

Range status and errors

Selected range

Filename H:MUSICCOLLECTIONBob Dylan1998 The Bootleg Series Vol.4 Live 1966Bob Dylan – Live 1966 (CD1).wav

Peak level 99.8 %
Range quality 100.0 %
Test CRC ADA3E8A9
Copy CRC ADA3E8A9
Copy OK

No errors occurred

AccurateRip summary

Track 1 accurately ripped (confidence 11) [A379D3C4]
Track 2 accurately ripped (confidence 11) [E69D4528]
Track 3 accurately ripped (confidence 11) [DF35DB7C]
Track 4 accurately ripped (confidence 11) [BF467CD1]
Track 5 accurately ripped (confidence 11) [D569C097]
Track 6 accurately ripped (confidence 11) [E205E9C8]
Track 7 accurately ripped (confidence 11) [40EDB987]

All tracks accurately ripped

End of status report

Tracklist CD2:

2-01 Tell Me, Momma 5:10
2-02 I Don’t Believe You (She Acts Like We Never Have Met) 6:07
2-03 Baby, Let Me Follow You Down 3:46
2-04 Just Like Tom Thumb’s Blues 6:50
2-05 Leopard-Skin Pill-Box Hat 4:50
2-06 One Too Many Mornings 4:22
2-07 Ballad Of A Thin Man 7:55
2-08 Like A Rolling Stone 8:01

EAC Log
Exact Audio Copy V0.99 prebeta 5 from 4. May 2009

EAC extraction logfile from 28. April 2013, 15:09

Bob Dylan / Live 1966 (The Bootleg Series Vol. 4 – The Albert Hall Concert) CD 2

Used drive : PLEXTOR DVDR PX-L890SA Adapter: 1 ID: 0

Read mode : Secure
Utilize accurate stream : Yes
Defeat audio cache : Yes
Make use of C2 pointers : No

Read offset correction : 6
Overread into Lead-In and Lead-Out : No
Fill up missing offset samples with silence : Yes
Delete leading and trailing silent blocks : No
Null samples used in CRC calculations : Yes
Used interface : Native Win32 interface for Win NT & 2000

Used output format : User Defined Encoder
Selected bitrate : 768 kBit/s
Quality : High
Add ID3 tag : No
Command line compressor : d:Program FilesExact Audio CopyFLACFLAC.EXE
Additional command line options : -T "DATE=%y" -T "GENRE=%m" -8 -V %s

TOC of the extracted CD

Track | Start | Length | Start sector | End sector
––––––––––––––––––––––––––––-
1 | 0:00.00 | 5:10.27 | 0 | 23276
2 | 5:10.27 | 6:07.00 | 23277 | 50801
3 | 11:17.27 | 3:46.33 | 50802 | 67784
4 | 15:03.60 | 6:50.10 | 67785 | 98544
5 | 21:53.70 | 4:50.10 | 98545 | 120304
6 | 26:44.05 | 4:22.25 | 120305 | 139979
7 | 31:06.30 | 7:55.02 | 139980 | 175606
8 | 39:01.32 | 8:01.68 | 175607 | 211749

Range status and errors

Selected range

Filename H:MUSICCOLLECTIONBob Dylan1998 The Bootleg Series Vol.4 Live 1966Bob Dylan – Live 1966 (CD2).wav

Peak level 99.8 %
Range quality 100.0 %
Test CRC C81D5950
Copy CRC C81D5950
Copy OK

No errors occurred

AccurateRip summary

Track 1 cannot be verified as accurate (confidence 71) [78AC9816], AccurateRip returned [F23B55D9]
Track 2 cannot be verified as accurate (confidence 73) [16186AFE], AccurateRip returned [BDA554DF]
Track 3 cannot be verified as accurate (confidence 72) [5015A8E4], AccurateRip returned [29BC4EB6]
Track 4 cannot be verified as accurate (confidence 73) [7F9AB1BE], AccurateRip returned [5DA6A959]
Track 5 cannot be verified as accurate (confidence 72) [0BAFF847], AccurateRip returned [EDB65D51]
Track 6 cannot be verified as accurate (confidence 72) [006EF1EB], AccurateRip returned [518C388D]
Track 7 cannot be verified as accurate (confidence 73) [C52143C7], AccurateRip returned [4D2CDEF4]
Track 8 cannot be verified as accurate (confidence 72) [BE8F1AF9], AccurateRip returned [0C4345FF]

No tracks could be verified as accurate
You may have a different pressing from the one(s) in the database

End of status report

===========================

Bob Dylan: Bootleg Series Vol. 1-10 (1991 - 2013) Re-up

CD06-07: Bob Dylan – Bootleg Series Vol. 5: Bob Dylan Live 1975 (2002) Repost
EAC | Flac(Image) + Cue + Log & MP3 CBR 320Kbps
2010 | 2CD | Columbia/Legacy, 88697732902 | ~ 645 or 240 Mb | Scans(jpg, 600dpi) -> 260 Mb
Rock / Folk Rock / American Folk

The biggest criticism of The Bootleg Series, Vol. 5: Bob Dylan Live 1975 – the third installment in Columbia/Legacy’s excavation of the exhaustive Bob Dylan vaults (the first was a box set, containing three volumes) – is that it’s a compilation of highlights from his Rolling Thunder Revue of 1975, one that doesn’t set out to replicate a set list but instead offers two discs and 22 tracks from this fabled tour. Apart from that, there’s very little to complain about on this superlative set, which offers the first official release of Rolling Thunder material. Yes, this had been heavily bootlegged over the decades, plus it was documented on Dylan’s notoriously unwatchable film Renaldo & Clara and there was Hard Rain, a collection culled from the post-Thunder 1976 tour that was similar but sour and nowhere near as good the 1975 material, as this superb set illustrates. Hearing this is a revelation, even for serious Dylan watchers – those so serious to own several bootlegs, even a full shelf of Dylan, but not as obsessive as those who track Bob’s every move – and those who aren’t as dedicated, yet still harbor a serious interest, will find this equally absorbing, since this is simply tremendous. It has become legend that Dylan will change arrangements and switch lyrics at the drop of a hat, which was evident on his jaunt with the Band in 1974, preserved for posterity on Before the Flood. Even so, he’s looser, wilder, and more alive in this careening, thrilling album, a record where "A Hard Rain’s a-Gonna Fall" gallops along as if it were "Leopard Skin Pill-Box Hat." As that suggests, the wildest thing about this is the electric cuts, where an unwieldy band turns out an overpowering sound that sounds inevitable, as if it’s the only way these songs could be played, even when you’ve heard these songs countless times before in other arrangements. The acoustic moments don’t pack the same charge, nor do they contain many of his duets with Joan Baez, yet they’re intimate, passionate versions of the songs. In fact, there’s not a bad moment here, and if it doesn’t replicate the Rolling Thunder tour list to the letter, it does indeed capture the essence of this legendary stint, which is why it’s necessary for every serious fan.

by Stephen Thomas Erlewine, AMG

Tracklist CD1:

1-1 Tonight I’ll Be Staying Here With You 3:55
1-2 It Ain’t Me, Babe 5:25
1-3 A Hard Rain’s A-Gonna Fall 5:16
1-4 The Lonesome Death Of Hattie Carroll 5:25
1-5 Romance In Durango 5:22
1-6 Isis 5:11
1-7 Mr. Tambourine Man 5:39
1-8 Simple Twist Of Fate 4:17
1-9 Blowin’ In The Wind 2:43
1-10 Mama, You Been On My Mind 3:11
1-11 I Shall Be Released 4:33

EAC Log
Exact Audio Copy V0.99 prebeta 5 from 4. May 2009

EAC extraction logfile from 28. April 2013, 15:46

Bob Dylan / Bob Dylan Bob Dylan Live 1975: The Rolling Thunder Revue – Disc 1

Used drive : PLEXTOR DVDR PX-L890SA Adapter: 1 ID: 0

Read mode : Secure
Utilize accurate stream : Yes
Defeat audio cache : Yes
Make use of C2 pointers : No

Read offset correction : 6
Overread into Lead-In and Lead-Out : No
Fill up missing offset samples with silence : Yes
Delete leading and trailing silent blocks : No
Null samples used in CRC calculations : Yes
Used interface : Native Win32 interface for Win NT & 2000

Used output format : User Defined Encoder
Selected bitrate : 768 kBit/s
Quality : High
Add ID3 tag : No
Command line compressor : d:Program FilesExact Audio CopyFLACFLAC.EXE
Additional command line options : -T "DATE=%y" -T "GENRE=%m" -8 -V %s

TOC of the extracted CD

Track | Start | Length | Start sector | End sector
––––––––––––––––––––––––––––-
1 | 0:00.00 | 3:55.13 | 0 | 17637
2 | 3:55.13 | 5:25.37 | 17638 | 42049
3 | 9:20.50 | 5:16.35 | 42050 | 65784
4 | 14:37.10 | 5:25.64 | 65785 | 90223
5 | 20:02.74 | 5:22.26 | 90224 | 114399
6 | 25:25.25 | 5:11.38 | 114400 | 137762
7 | 30:36.63 | 5:27.44 | 137763 | 162331
8 | 36:04.32 | 4:26.28 | 162332 | 182309
9 | 40:30.60 | 2:41.04 | 182310 | 194388
10 | 43:11.64 | 3:03.68 | 194389 | 208181
11 | 46:15.57 | 4:44.36 | 208182 | 229517

Range status and errors

Selected range

Filename H:MUSICCOLLECTIONBob Dylan2002 The Bootleg Series Vol.5 Live 1975 The Rolling Thunder RevueBob Dylan Live 1975 – Disc 1.wav

Peak level 99.8 %
Range quality 100.0 %
Test CRC F805516C
Copy CRC F805516C
Copy OK

No errors occurred

AccurateRip summary

Track 1 accurately ripped (confidence 2) [1F0268FD]
Track 2 accurately ripped (confidence 2) [69879D02]
Track 3 accurately ripped (confidence 2) [3C16A23D]
Track 4 accurately ripped (confidence 2) [C2A30A8E]
Track 5 accurately ripped (confidence 2) [502DE391]
Track 6 accurately ripped (confidence 2) [7BFF557C]
Track 7 accurately ripped (confidence 2) [76C65656]
Track 8 accurately ripped (confidence 2) [BAF5F675]
Track 9 accurately ripped (confidence 2) [8A8D19E8]
Track 10 accurately ripped (confidence 2) [377EF1A0]
Track 11 accurately ripped (confidence 2) [A7F863FD]

All tracks accurately ripped

End of status report

Tracklist CD2:

2-1 It’s All Over Now, Baby Blue 4:34
2-2 Love Minus Zero/No Limit 3:13
2-3 Tangled Up In Blue 4:41
2-4 The Water Is Wide 5:16
2-5 It Takes A Lot To Laugh, It Takes A Train To Cry 3:12
2-6 Oh, Sister 4:04
2-7 Hurricane 8:15
2-8 One More Cup Of Coffee (Valley Below) 4:14
2-9 Sara 4:29
2-10 Just Like A Woman 4:31
2-11 Knockin’ On Heaven’s Door 4:22

EAC Log
Exact Audio Copy V0.99 prebeta 5 from 4. May 2009

EAC extraction logfile from 28. April 2013, 16:16

Bob Dylan / Bob Dylan Bob Dylan Live 1975: The Rolling Thunder Revue – Disc 2

Used drive : PLEXTOR DVDR PX-L890SA Adapter: 1 ID: 0

Read mode : Secure
Utilize accurate stream : Yes
Defeat audio cache : Yes
Make use of C2 pointers : No

Read offset correction : 6
Overread into Lead-In and Lead-Out : No
Fill up missing offset samples with silence : Yes
Delete leading and trailing silent blocks : No
Null samples used in CRC calculations : Yes
Used interface : Native Win32 interface for Win NT & 2000

Used output format : User Defined Encoder
Selected bitrate : 768 kBit/s
Quality : High
Add ID3 tag : No
Command line compressor : d:Program FilesExact Audio CopyFLACFLAC.EXE
Additional command line options : -T "DATE=%y" -T "GENRE=%m" -8 -V %s

TOC of the extracted CD

Track | Start | Length | Start sector | End sector
––––––––––––––––––––––––––––-
1 | 0:00.00 | 4:31.40 | 0 | 20364
2 | 4:31.40 | 3:16.41 | 20365 | 35105
3 | 7:48.06 | 4:41.14 | 35106 | 56194
4 | 12:29.20 | 5:16.19 | 56195 | 79913
5 | 17:45.39 | 3:12.30 | 79914 | 94343
6 | 20:57.69 | 4:04.37 | 94344 | 112680
7 | 25:02.31 | 8:15.41 | 112681 | 149846
8 | 33:17.72 | 4:06.43 | 149847 | 168339
9 | 37:24.40 | 4:37.40 | 168340 | 189154
10 | 42:02.05 | 4:31.53 | 189155 | 209532
11 | 46:33.58 | 4:20.69 | 209533 | 229101

Range status and errors

Selected range

Filename H:MUSICCOLLECTIONBob Dylan2002 The Bootleg Series Vol.5 Live 1975 The Rolling Thunder RevueBob Dylan Live 1975 – Disc 2.wav

Peak level 99.8 %
Range quality 99.9 %
Test CRC 641A835C
Copy CRC 641A835C
Copy OK

No errors occurred

AccurateRip summary

Track 1 accurately ripped (confidence 2) [B59418F7]
Track 2 accurately ripped (confidence 2) [60C2B3B5]
Track 3 accurately ripped (confidence 2) [5947945D]
Track 4 accurately ripped (confidence 2) [AA8D3A4E]
Track 5 accurately ripped (confidence 2) [10D705DB]
Track 6 accurately ripped (confidence 2) [D29B4CFD]
Track 7 accurately ripped (confidence 2) [3C7B9BBF]
Track 8 accurately ripped (confidence 2) [A4E86B01]
Track 9 accurately ripped (confidence 2) [5C0EC4D9]
Track 10 accurately ripped (confidence 2) [52ADCCA6]
Track 11 accurately ripped (confidence 2) [0E3BE5E9]

All tracks accurately ripped

End of status report

===========================

Bob Dylan: Bootleg Series Vol. 1-10 (1991 - 2013) Re-up

CD08-09: Bob Dylan – Bootleg Series Vol. 6: Bob Dylan Live 1964 (2004) Repost
EAC | Flac(Image) + Cue + Log & MP3 CBR 320Kbps
2010 | 2CD | Columbia/Legacy, 88697732912 | ~ 591 or 245 Mb | Scans(jpg, 600dpi) -> 248 Mb
Rock / Folk Rock / American Folk

It does seem strange, very strange indeed, to be hearing an official release of this historic concert, which has been available as a bootleg for decades. The Halloween gig at Philharmonic Hall in New York was a special part of the tour for Another Side of Bob Dylan, arguably his greatest acoustic recording. What’s more poignant, however, is how it previews the material on Bringing It All Back Home. While the songs on Another Side hinted at things to come, nothing could have prepared audiences for the dreamy surrealism of "Mr. Tambourine Man," or the nightmarish abstract poetry of "It’s Alright Ma (I’m Only Bleeding)," and "Gates of Eden" – all of which appear on Disc One. The remainder of the material comes from Dylan’s preceding catalog; there are stirring protest and topical songs, folk songs, humorous narratives, love songs, great wisecracks, and talking blues – "Talking John Birch Paranoid Blues!"), most of them classics – "With God on Our Side," "Hard Rain’s Gonna Fall," "Times They Are A-Changin’," "Lonesome Death of Hattie Carroll," "Don’t Think Twice, It’s Alright," "Mama You’ve Been on My Mind," "All I Really Want to Do," "It Ain’t Me Babe" – all of these songs and many others (there are 17 in all) are delivered with the confidence of the seasoned performer; a man who knows his audience and how to handle them. It’s not cynical, not detached, just masterful. For those unfamiliar with this set, Joan Baez makes an appearance near the end of the show, and duets with Dylan on four cuts including an amazing read of "Silver Dagger." It is true that if you possess the boot, you have all the music here, and chances are, it has some pretty good sound. But you’ll need this version, too. For starters, the sound is spectacular, wonderfully warm and immediate, and the transfer is extremely clean with wonderful dynamics. Secondly, the package is deluxe. In addition to a fine essay by Princeton historian and author Sean Wilentz (he made the gig when he was 13), there are a truckload of killer photos from the show and the period, along with complete discographical information that puts the bootleg packages to shame. For those interested in the acoustic Bob Dylan, this concert is like the grail; his voice is in impeccable shape, and his delivery is revelatory. For those interested in the transition from acoustic to electric, this show is the seam, and for those who are die-hard fans, this is another welcome item in the official catalog.

by Thom Jurek, AMG

Tracklist CD1:

1-1 The Times They Are A-Changin’ 3:29
1-2 Spanish Harlem Incident 3:07
1-3 Talkin’ John Birch Paranoid Blues 4:06
1-4 To Ramona 6:01
1-5 Who Killed Davey Moore? 4:46
1-6 Gates Of Eden 8:32
1-7 If You Gotta Go, Go Now (Or Else You Got To Stay All Night) 4:06
1-8 It’s Alright, Ma (I’m Only Bleeding) 11:26
1-9 I Don’t Believe You (She Acts Like We Never Have Met) 4:01
1-10 Mr. Tambourine Man 6:33
1-11 A Hard Rain’s A-Gonna Fall 7:44

EAC Log
Exact Audio Copy V0.99 prebeta 5 from 4. May 2009

EAC extraction logfile from 21. April 2013, 15:59

Bob Dylan / Bob Dylan The Bootleg Volume 6: Bob Dylan Live 1964 – Concert At Philharmonic Hall – ADVANCE CD 1

Used drive : PLEXTOR DVDR PX-L890SA Adapter: 1 ID: 0

Read mode : Secure
Utilize accurate stream : Yes
Defeat audio cache : Yes
Make use of C2 pointers : No

Read offset correction : 6
Overread into Lead-In and Lead-Out : No
Fill up missing offset samples with silence : Yes
Delete leading and trailing silent blocks : No
Null samples used in CRC calculations : Yes
Used interface : Native Win32 interface for Win NT & 2000

Used output format : User Defined Encoder
Selected bitrate : 768 kBit/s
Quality : High
Add ID3 tag : No
Command line compressor : d:Program FilesExact Audio CopyFLACFLAC.EXE
Additional command line options : -T "DATE=%y" -T "GENRE=%m" -8 -V %s

TOC of the extracted CD

Track | Start | Length | Start sector | End sector
––––––––––––––––––––––––––––-
1 | 0:00.00 | 3:29.15 | 0 | 15689
2 | 3:29.15 | 3:07.12 | 15690 | 29726
3 | 6:36.27 | 4:06.10 | 29727 | 48186
4 | 10:42.37 | 6:01.45 | 48187 | 75306
5 | 16:44.07 | 4:46.35 | 75307 | 96791
6 | 21:30.42 | 8:32.58 | 96792 | 135249
7 | 30:03.25 | 4:06.05 | 135250 | 153704
8 | 34:09.30 | 11:26.12 | 153705 | 205166
9 | 45:35.42 | 4:01.28 | 205167 | 223269
10 | 49:36.70 | 6:33.20 | 223270 | 252764
11 | 56:10.15 | 7:44.30 | 252765 | 287594

Range status and errors

Selected range

Filename H:MUSICCOLLECTIONBob DylanThe Bootleg series Vol.6 Bob Dylan Live 1964 – Concert At Philharmonic HallBob Dylan – Live 1964 – CD 1.wav

Peak level 99.6 %
Range quality 100.0 %
Test CRC 67AB97A7
Copy CRC 67AB97A7
Copy OK

No errors occurred

AccurateRip summary

Track 1 cannot be verified as accurate (confidence 79) [5E7D481C], AccurateRip returned [39908CA6]
Track 2 cannot be verified as accurate (confidence 80) [4F29DF9A], AccurateRip returned [83332E32]
Track 3 cannot be verified as accurate (confidence 80) [C301D801], AccurateRip returned [79413F5E]
Track 4 cannot be verified as accurate (confidence 79) [778F6431], AccurateRip returned [06111FB0]
Track 5 cannot be verified as accurate (confidence 80) [8826F41F], AccurateRip returned [652EE246]
Track 6 cannot be verified as accurate (confidence 79) [A4C3C664], AccurateRip returned [4DBC9D46]
Track 7 cannot be verified as accurate (confidence 80) [42CCAFCC], AccurateRip returned [0939216C]
Track 8 cannot be verified as accurate (confidence 78) [01662137], AccurateRip returned [7FC56D9E]
Track 9 cannot be verified as accurate (confidence 79) [785E3164], AccurateRip returned [82632267]
Track 10 cannot be verified as accurate (confidence 79) [300B1DB8], AccurateRip returned [DB212EAC]
Track 11 cannot be verified as accurate (confidence 69) [27A19F3B], AccurateRip returned [157E3CC5]

No tracks could be verified as accurate
You may have a different pressing from the one(s) in the database

End of status report

Tracklist CD2:

2-1 Talkin’ World War III Blues 5:52
2-2 Don’t Think Twice, It’s All Right 4:34
2-3 The Lonesome Death Of Hattie Carroll 6:57
2-4 Mama, You Been On My Mind 3:35
2-5 Silver Dagger 3:47
2-6 With God On Our Side 6:17
2-7 It Ain’t Me, Babe 5:11
2-8 All I Really Wanna Do 4:01

EAC Log
Exact Audio Copy V0.99 prebeta 5 from 4. May 2009

EAC extraction logfile from 21. April 2013, 16:32

Bob Dylan / Bob Dylan The Bootleg Volume 6: Bob Dylan Live 1964 – Concert At Philharmonic Hall – ADVANCE CD 2

Used drive : PLEXTOR DVDR PX-L890SA Adapter: 1 ID: 0

Read mode : Secure
Utilize accurate stream : Yes
Defeat audio cache : Yes
Make use of C2 pointers : No

Read offset correction : 6
Overread into Lead-In and Lead-Out : No
Fill up missing offset samples with silence : Yes
Delete leading and trailing silent blocks : No
Null samples used in CRC calculations : Yes
Used interface : Native Win32 interface for Win NT & 2000

Used output format : User Defined Encoder
Selected bitrate : 768 kBit/s
Quality : High
Add ID3 tag : No
Command line compressor : d:Program FilesExact Audio CopyFLACFLAC.EXE
Additional command line options : -T "DATE=%y" -T "GENRE=%m" -8 -V %s

TOC of the extracted CD

Track | Start | Length | Start sector | End sector
––––––––––––––––––––––––––––-
1 | 0:00.00 | 5:52.17 | 0 | 26416
2 | 5:52.17 | 4:34.43 | 26417 | 47009
3 | 10:26.60 | 6:57.60 | 47010 | 78344
4 | 17:24.45 | 3:35.45 | 78345 | 94514
5 | 21:00.15 | 3:47.20 | 94515 | 111559
6 | 24:47.35 | 6:17.47 | 111560 | 139881
7 | 31:05.07 | 5:11.55 | 139882 | 163261
8 | 36:16.62 | 4:01.28 | 163262 | 181364

Range status and errors

Selected range

Filename H:MUSICCOLLECTIONBob DylanThe Bootleg series Vol.6 Bob Dylan Live 1964 – Concert At Philharmonic HallBob Dylan – Live 1964 – CD 2.wav

Peak level 99.8 %
Range quality 100.0 %
Test CRC 03099C56
Copy CRC 03099C56
Copy OK

No errors occurred

AccurateRip summary

Track 1 cannot be verified as accurate (confidence 80) [677F0108], AccurateRip returned [EF08D5BA]
Track 2 cannot be verified as accurate (confidence 80) [A8F9EA53], AccurateRip returned [AF82D246]
Track 3 cannot be verified as accurate (confidence 81) [5C2AB355], AccurateRip returned [D9BC4C8D]
Track 4 cannot be verified as accurate (confidence 81) [0185C859], AccurateRip returned [2479CD55]
Track 5 cannot be verified as accurate (confidence 81) [089DBB11], AccurateRip returned [326E92C5]
Track 6 cannot be verified as accurate (confidence 80) [4F81E06F], AccurateRip returned [6E3FAB8A]
Track 7 cannot be verified as accurate (confidence 81) [4267EC98], AccurateRip returned [6AE23438]
Track 8 cannot be verified as accurate (confidence 76) [901BE291], AccurateRip returned [0337B98E]

No tracks could be verified as accurate
You may have a different pressing from the one(s) in the database

End of status report

===========================

Bob Dylan: Bootleg Series Vol. 1-10 (1991 - 2013) Re-up

CD10-11: Bob Dylan – Bootleg Series Vol. 7: No Direction Home (2005)
EAC | Flac(Image) + Cue + Log & MP3 CBR 320Kbps
2010 | 2CD | Columbia/Legacy, 88697732942 | ~ 854 or 340 Mb | Scans(jpg, 600dpi) -> 260 Mb
Rock / Folk Rock / American Folk

The seventh volume of Bob Dylan’s Bootleg Series doubles as the soundtrack to No Direction Home, Martin Scorsese’s feature-length documentary covering Dylan’s career from its beginnings to 1966 (it was aired in two parts on PBS in September 2005 and released in expanded form on DVD that same month). Unlike the previous three installments of The Bootleg Series, which focused exclusively on live concerts, No Direction Home is assembled from a variety of sources, including home recordings, publishing demos, alternate studio takes, and live recordings, with the first disc devoted to early acoustic recordings and the second to electric music. In fact, No Direction Home proceeds chronologically, filling in gaps between the proper albums or, more often, providing a parallel history of the most productive era of Dylan’s career. All of this material – with the exception of "Song to Woody," taken from his debut, and a cataclysmic version of "Like a Rolling Stone" taken from the Royal Albert Hall show that was released as The Bootleg Series, Vol. 4 – is previously unreleased, and much of it has not been widely bootlegged (and the cuts that have been bootlegged, such as "Dink’s Song," have never been heard in such crystal-clear fidelity). Where the inaugural edition of The Bootleg Series had many previously unreleased Dylan originals, there is only one here, the tentative opener, "When I Got Troubles," a sweet, simple 1959 song that finds Dylan in his formative stage. In place of unheard songs are a slew of alternate versions of familiar tunes. On the first disc, these are largely live versions of such warhorses as "Blowin’ in the Wind," "Masters of War," and "A Hard Rain’s a-Gonna Fall," recorded when the songs were still fresh. These live performances have an immediacy and intimacy that not only illustrate what a powerful folksinger Dylan was, but also suggest how the songs might have sounded when they were new tunes. Toward the end of the first disc, alternate versions that are significantly different from the final versions begin to surface with an early take on "Mr. Tambourine Man" recorded at the Another Side of Bob Dylan sessions with Ramblin’ Jack Elliott on second guitar and backing vocals. The second disc has several alternates that are similarly notably different, highlighted by a lively, careening "It Takes a Lot to Laugh, It Takes a Train to Cry" with a different final verse, a "Desolation Row" with electric guitar, "Highway 61 Revisited" without the siren whistle, a slower, heavier, blusier take on "Leopard-Skin Pill Box Hat," a relaxed version of "Stuck Inside of Mobile with the Memphis Blues Again" that lacks the carnivalesque swirl of sound from the Blonde on Blonde version, and a lean, insistent "Visions of Johanna."

As different as some of these versions are, there are no great revelations here, apart from the realization that the best takes really did make the finished records. But looking for revelations on this seventh edition of The Bootleg Series may be setting the bar too high, particularly because even if few things here are earth-shaking (a rampaging "Maggie’s Farm" from Dylan’s legendary electric set at the Newport Folk Festival in 1965 could qualify, thanks in great deal to an incendiary Mike Bloomfield), everything here is uniformly excellent and worth hearing well more than once. That alone, of course, would make this yet another worthwhile addition to any serious Dylan collection, but what makes No Direction Home noteworthy as an album is that it is the first Dylan record to offer an aural biography of Dylan. This does a superb job of tracing the development of Dylan as a musician, taking him from a young folkie singing standards, through the rush of his early standards, and to the visionary music he made once he went electric. Put in this context, the electric music on disc two sounds as bracing and brilliant and surprising as it did in the ’60s, while the acoustic folk on disc one sounds vibrant, pure, and alive. After all these years, that’s a hard accomplishment to pull off, and to the credit of everybody involved in this terrific release, they’ve been able to make even the most familiar Dylan tunes feel new again.

by Stephen Thomas Erlewine, AMG

Tracklist CD1:

1-1 When I Got Troubles (1959) 1:30
1-2 Rambler, Gambler (Home Recording) 2:27
1-3 This Land Is Your Land (Live Version) 5:58
1-4 Song To Woody 2:41
1-5 Dink’s Song (Home Recording) 5:02
1-6 I Was Young When I Left Home (Home Recording) 5:25
1-7 Sally Gal (Alternate Take) 2:38
1-8 Don’t Think Twice, It’s All Right (Demo) 3:35
1-9 Man Of Constant Sorrow 3:24
1-10 Blowin’ In The Wind (Live Version) 4:23
1-11 Masters Of War (Live Version) 4:43
1-12 A Hard Rain’s A-Gonna Fall (Live Version) 8:22
1-13 When The Ship Comes In (Live Version) 3:37
1-14 Mr. Tambourine Man (Alternate Take) 6:43
1-15 Chimes Of Freedom (Live Version) 8:03
1-16 It’s All Over Now, Baby Blue (Alternate Take) 3:33

EAC Log
Exact Audio Copy V0.99 prebeta 5 from 4. May 2009

EAC extraction logfile from 28. April 2013, 10:39

Bob Dylan / Bob Dylan No Direction Home: Bootleg Volume 7 (Movie Soundtrack) CD 1

Used drive : PLEXTOR DVDR PX-L890SA Adapter: 1 ID: 0

Read mode : Secure
Utilize accurate stream : Yes
Defeat audio cache : Yes
Make use of C2 pointers : No

Read offset correction : 6
Overread into Lead-In and Lead-Out : No
Fill up missing offset samples with silence : Yes
Delete leading and trailing silent blocks : No
Null samples used in CRC calculations : Yes
Used interface : Native Win32 interface for Win NT & 2000

Used output format : User Defined Encoder
Selected bitrate : 768 kBit/s
Quality : High
Add ID3 tag : No
Command line compressor : d:Program FilesExact Audio CopyFLACFLAC.EXE
Additional command line options : -T "DATE=%y" -T "GENRE=%m" -8 -V %s

TOC of the extracted CD

Track | Start | Length | Start sector | End sector
––––––––––––––––––––––––––––-
1 | 0:00.00 | 1:30.60 | 0 | 6809
2 | 1:30.60 | 2:27.67 | 6810 | 17901
3 | 3:58.52 | 5:58.29 | 17902 | 44780
4 | 9:57.06 | 2:41.40 | 44781 | 56895
5 | 12:38.46 | 5:02.51 | 56896 | 79596
6 | 17:41.22 | 5:25.34 | 79597 | 104005
7 | 23:06.56 | 2:38.03 | 104006 | 115858
8 | 25:44.59 | 3:35.67 | 115859 | 132050
9 | 29:20.51 | 3:24.23 | 132051 | 147373
10 | 32:44.74 | 4:23.62 | 147374 | 167160
11 | 37:08.61 | 4:43.05 | 167161 | 188390
12 | 41:51.66 | 8:22.21 | 188391 | 226061
13 | 50:14.12 | 3:37.06 | 226062 | 242342
14 | 53:51.18 | 6:43.04 | 242343 | 272571
15 | 60:34.22 | 8:03.54 | 272572 | 308850
16 | 68:38.01 | 3:33.68 | 308851 | 324893

Range status and errors

Selected range

Filename H:MUSICCOLLECTIONBob Dylan2005 The Bootleg Series Vol.7 No Direction HomeBob Dylan – No Direction Home CD 1.wav

Peak level 100.0 %
Range quality 100.0 %
Test CRC E6D8025F
Copy CRC E6D8025F
Copy OK

No errors occurred

AccurateRip summary

Track 1 cannot be verified as accurate (confidence 168) [837C80DF], AccurateRip returned [FA57B042]
Track 2 cannot be verified as accurate (confidence 166) [AA26E325], AccurateRip returned [EC2F32BE]
Track 3 cannot be verified as accurate (confidence 166) [71D08BCA], AccurateRip returned [60AFB67F]
Track 4 cannot be verified as accurate (confidence 166) [6FB5F658], AccurateRip returned [6708F6F8]
Track 5 cannot be verified as accurate (confidence 164) [E622CC27], AccurateRip returned [6D92F579]
Track 6 cannot be verified as accurate (confidence 164) [108A79EF], AccurateRip returned [7111D355]
Track 7 cannot be verified as accurate (confidence 165) [2BC62930], AccurateRip returned [A4757FA4]
Track 8 cannot be verified as accurate (confidence 164) [9550EB14], AccurateRip returned [1088B4BB]
Track 9 cannot be verified as accurate (confidence 164) [0BFEB346], AccurateRip returned [2F2712C4]
Track 10 cannot be verified as accurate (confidence 164) [D4F080FE], AccurateRip returned [78CF810C]
Track 11 cannot be verified as accurate (confidence 163) [225F9343], AccurateRip returned [7ADF516B]
Track 12 cannot be verified as accurate (confidence 161) [273F8CD1], AccurateRip returned [19598BE0]
Track 13 cannot be verified as accurate (confidence 161) [C9A6ADD7], AccurateRip returned [ADAF756A]
Track 14 cannot be verified as accurate (confidence 159) [57DD37C5], AccurateRip returned [5A90868B]
Track 15 cannot be verified as accurate (confidence 159) [954B7E35], AccurateRip returned [3EC297C6]
Track 16 cannot be verified as accurate (confidence 160) [58C1B2F0], AccurateRip returned [0C1FFFB5]

No tracks could be verified as accurate
You may have a different pressing from the one(s) in the database

End of status report

Tracklist CD2:

2-1 She Belongs To Me (Alternate Take) 4:10
2-2 Maggie’s Farm (Live Version) 5:03
2-3 It Takes A Lot To Laugh, It Takes A Train To Cry (Alternate Take) 3:34
2-4 Tombstone Blues (Alternate Take) 3:36
2-5 Just Like Tom Thumb’s Blues (Alternate Take) 5:44
2-6 Desolation Row (Alternate Take) 11:44
2-7 Highway 61 Revisited (Alternate Take) 3:39
2-8 Leopard-Skin Pill-Box Hat (Alternate Take) 6:25
2-9 Stuck Inside Of Mobile WIth The Memphis Blues Again (Alternate Take) 5:44
2-10 Visions Of Johanna (Alternate Take) 6:38
2-11 Ballad Of A Thin Man (Live Version) 7:45
2-12 Like A Rolling Stone (Live Version) 8:12

EAC Log
Exact Audio Copy V0.99 prebeta 5 from 4. May 2009

EAC extraction logfile from 28. April 2013, 14:39

Bob Dylan / Bob Dylan No Direction Home: Bootleg Volume 7 (Movie Soundtrack) CD 2

Used drive : PLEXTOR DVDR PX-L890SA Adapter: 1 ID: 0

Read mode : Secure
Utilize accurate stream : Yes
Defeat audio cache : Yes
Make use of C2 pointers : No

Read offset correction : 6
Overread into Lead-In and Lead-Out : No
Fill up missing offset samples with silence : Yes
Delete leading and trailing silent blocks : No
Null samples used in CRC calculations : Yes
Used interface : Native Win32 interface for Win NT & 2000

Used output format : User Defined Encoder
Selected bitrate : 768 kBit/s
Quality : High
Add ID3 tag : No
Command line compressor : d:Program FilesExact Audio CopyFLACFLAC.EXE
Additional command line options : -T "DATE=%y" -T "GENRE=%m" -8 -V %s

TOC of the extracted CD

Track | Start | Length | Start sector | End sector
––––––––––––––––––––––––––––-
1 | 0:00.00 | 4:10.11 | 0 | 18760
2 | 4:10.11 | 5:03.06 | 18761 | 41491
3 | 9:13.17 | 3:34.62 | 41492 | 57603
4 | 12:48.04 | 3:36.57 | 57604 | 73860
5 | 16:24.61 | 5:44.21 | 73861 | 99681
6 | 22:09.07 | 11:44.59 | 99682 | 152540
7 | 33:53.66 | 3:39.59 | 152541 | 169024
8 | 37:33.50 | 6:25.62 | 169025 | 197961
9 | 43:59.37 | 5:44.62 | 197962 | 223823
10 | 49:44.24 | 6:38.15 | 223824 | 253688
11 | 56:22.39 | 7:45.57 | 253689 | 288620
12 | 64:08.21 | 8:12.36 | 288621 | 325556

Range status and errors

Selected range

Filename H:MUSICCOLLECTIONBob Dylan2005 The Bootleg Series Vol.7 No Direction HomeBob Dylan – No Direction Home CD 2.wav

Peak level 100.0 %
Range quality 99.9 %
Test CRC 6056A3DB
Copy CRC 6056A3DB
Copy OK

No errors occurred

AccurateRip summary

Track 1 accurately ripped (confidence 92) [BB830426]
Track 2 accurately ripped (confidence 91) [DFF0CAFB]
Track 3 accurately ripped (confidence 92) [41BF6A15]
Track 4 accurately ripped (confidence 91) [0A2BF16C]
Track 5 accurately ripped (confidence 90) [FF2EBE5C]
Track 6 accurately ripped (confidence 91) [1473F54C]
Track 7 accurately ripped (confidence 89) [3B2AB4C4]
Track 8 accurately ripped (confidence 90) [A5900489]
Track 9 accurately ripped (confidence 90) [2A72ACF0]
Track 10 accurately ripped (confidence 90) [22E22C98]
Track 11 accurately ripped (confidence 90) [C292BE58]
Track 12 accurately ripped (confidence 85) [C3B33384]

All tracks accurately ripped

End of status report

===========================

Bob Dylan: Bootleg Series Vol. 1-10 (1991 - 2013) Re-up

CD12-13: Bob Dylan – Bootleg Series Vol. 8: Tell Tale Signs (2008)
EAC | Flac(Image) + Cue + Log & MP3 CBR 320Kbps
2010 | 2CD | Columbia, 88697 74610 2 | ~ 864 or 323 Mb | Scans(jpg, 600dpi) -> 232 Mb
Rock / Folk Rock / American Folk

Tell Tale Signs is perhaps the most appropriately titled of all the volumes in Bob Dylan’s official Bootleg Series thus far. Containing 27 tracks, the material here dates from the albums Oh Mercy through to 2006’s Modern Times. It presents a carefully prepared sonic treat of a genuine enigma’s musical world-view. Dylan may be an icon, but if it wasn’t already obvious, he seems to perceive the modern world as a strange place that he no longer understands, nor wishes to. The music here is startling in its depth and presentation. It begins with one of the two versions of "Mississippi" included; the song first appeared on Love and Theft, but was written for the Time Out of Mind sessions five years earlier. This one, with only Daniel Lanois’ electric guitar as backing, shows Dylan in full voice, and performing it as a midtempo blues. It’s jauntier in tempo, but harder, leaner, and wearier than the released version. Even more shocking is "Most of the Time," which has become a signature of Lanois’ production style with its warm, thickly padded guitars and muffled drums. This one features Dylan solo with harmonica and guitar. It comes off as a statement of actuality about strengths and weaknesses rather than as a treatise of denial in the aftermath of lost love. It feels like a back-porch country song here, with different lyrics that underscore the singer’s steely determination. There are some truly amazing stops along the way. The unreleased "Red River Shore" would have shifted some of the darkness on Time Out of Mind to some declaration of empathy and even tenderness had it been released. Likewise, "Marchin’ to the City," one of the best slow blues Dylan has ever written, offers a respite from the desolation on that album. Soundtracks get represented, too: the alternate take of "Tell Ol’ Bill," from North Country, is a semi-rag tune with rambling honky tonk piano, and "Huck’s Tune," from Lucky You, creates a more complex look at the male lead in the film with a Celtic undertow in the melody. Disc one closes with a burning live reading of "High Water (For Charley Patton)," with overdriven electric guitars replacing the banjo.

A real surprise on disc two is a dynamite reading of Robert Johnson’s "32-20 Blues" that was originally recorded for the covers-only World Gone Wrong, but left in the can. A completely unreleased tune, "Can’t Escape from You" portrays Dylan the folksinger as a lover of early rock & roll ballads. In his own wrecked way, he pays homage (in waltz time) to the Platters, Doc Pomus, Leiber & Stoller, and Cisco Houston with a lonely B-3 and trebly guitars. There are two takes of "Dignity" here as well (one on each disc), the first a prophetic gospel solo piano version and the second a full-band roots rock rave-up. The version of "Ring Them Bells" recorded live at New York’s Supper Club is so utterly moving that it raises goosebumps and leaves the studio version in the dust. The disc closes with the greatest moment on the whole set: "’Cross the Green Mountain," from the Gods and Generals soundtrack. Veteran Dylanologist Larry Sloman claims in his truly brilliant and incisive liner notes that this "might be his finest hour as a songwriter." The amazing thing? It’s not just hyperbole. In all, even in some of its familiarities, Tell Tale Signs feels like a new Bob Dylan record, not only for the astonishing freshness of the material, but also for the incredible sound quality and organic feeling of everything here. It’s a carefully presented set, but it’s full of life and crackling energy and offers yet more proof – as if any were needed – that Dylan remains as cagey, unpredictable, and yes, profound and relevant as he ever was.

by Thom Jurek, AMG

Tracklist CD1:

1-1 Mississippi (Unreleased, Time Out Of Mind) 6:04
1-2 Most Of The Time (Alternate Version, Oh Mercy) 3:35
1-3 Dignity (Piano Version, Oh Mercy) 2:12
1-4 Someday Baby (Alternate Version, Modern Times) 5:58
1-5 Red River Shore (Unreleased, Time Out Of Mind) 7:34
1-6 Tell Ol’ Bill (Alternate Version, North Country Soundtrack) 5:30
1-7 Born In Time (Unreleased, Oh Mercy) 4:14
1-8 Can’t Wait (Alternate Version, Oh Mercy) 5:44
1-9 Everything Is Broken (Alternate Version, Oh Mercy) 3:11
1-10 Dreamin’ Of You (Unreleased, Time Out Of Mind) 5:50
1-11 Huck’s Tune (From Lucky You Soundtrack) 4:04
1-12 Marchin’ To The City (Unreleased, Time Out Of Mind) 6:32
1-13 High Water (For Charley Patton) (Live In Niagara Falls, ON – 23 Aug 2003) 6:46

EAC Log
Exact Audio Copy V0.99 prebeta 5 from 4. May 2009

EAC extraction logfile from 21. April 2013, 17:18

Bob Dylan / Tell Tale Signs – The Bootleg Series Vol. 8

Used drive : PLEXTOR DVDR PX-L890SA Adapter: 1 ID: 0

Read mode : Secure
Utilize accurate stream : Yes
Defeat audio cache : Yes
Make use of C2 pointers : No

Read offset correction : 6
Overread into Lead-In and Lead-Out : No
Fill up missing offset samples with silence : Yes
Delete leading and trailing silent blocks : No
Null samples used in CRC calculations : Yes
Used interface : Native Win32 interface for Win NT & 2000

Used output format : User Defined Encoder
Selected bitrate : 768 kBit/s
Quality : High
Add ID3 tag : No
Command line compressor : d:Program FilesExact Audio CopyFLACFLAC.EXE
Additional command line options : -T "DATE=%y" -T "GENRE=%m" -8 -V %s

TOC of the extracted CD

Track | Start | Length | Start sector | End sector
––––––––––––––––––––––––––––-
1 | 0:00.00 | 6:03.58 | 0 | 27282
2 | 6:03.58 | 3:35.27 | 27283 | 43434
3 | 9:39.10 | 2:12.13 | 43435 | 53347
4 | 11:51.23 | 5:57.53 | 53348 | 80175
5 | 17:49.01 | 7:34.34 | 80176 | 114259
6 | 25:23.35 | 5:29.64 | 114260 | 138998
7 | 30:53.24 | 4:13.48 | 138999 | 158021
8 | 35:06.72 | 5:43.67 | 158022 | 183813
9 | 40:50.64 | 3:11.33 | 183814 | 198171
10 | 44:02.22 | 5:49.71 | 198172 | 224417
11 | 49:52.18 | 4:04.00 | 224418 | 242717
12 | 53:56.18 | 6:32.18 | 242718 | 272135
13 | 60:28.36 | 6:46.16 | 272136 | 302601

Range status and errors

Selected range

Filename H:MUSICCOLLECTIONBob Dylan2008 The Bootleg Series Vol.8 Tell Tale SignsBob Dylan – Tell Tale Signs CD1.wav

Peak level 100.0 %
Range quality 100.0 %
Test CRC 7FF764AE
Copy CRC 7FF764AE
Copy OK

No errors occurred

AccurateRip summary

Track 1 cannot be verified as accurate (confidence 189) [AEA0E6A4], AccurateRip returned [A0B8678F]
Track 2 cannot be verified as accurate (confidence 191) [533268E4], AccurateRip returned [314A3781]
Track 3 cannot be verified as accurate (confidence 190) [CD69D8DC], AccurateRip returned [7CDB707C]
Track 4 cannot be verified as accurate (confidence 190) [97CA7862], AccurateRip returned [322F9616]
Track 5 cannot be verified as accurate (confidence 188) [3280BE37], AccurateRip returned [5C6C698B]
Track 6 cannot be verified as accurate (confidence 189) [0B6EDC17], AccurateRip returned [3BB96043]
Track 7 cannot be verified as accurate (confidence 192) [7738714F], AccurateRip returned [A37A26E9]
Track 8 cannot be verified as accurate (confidence 191) [8F59437F], AccurateRip returned [ADEDF9AF]
Track 9 cannot be verified as accurate (confidence 192) [3F21E169], AccurateRip returned [F6405A77]
Track 10 cannot be verified as accurate (confidence 185) [0EA18FF1], AccurateRip returned [AFADF869]
Track 11 cannot be verified as accurate (confidence 187) [DABCF5B4], AccurateRip returned [4D1DC7FA]
Track 12 cannot be verified as accurate (confidence 190) [59518E01], AccurateRip returned [0B1BECE6]
Track 13 cannot be verified as accurate (confidence 189) [AA9A44AB], AccurateRip returned [D0A1A4DE]

No tracks could be verified as accurate
You may have a different pressing from the one(s) in the database

End of status report

Tracklist CD2:

2-1 Mississippi (Unreleased Version #2, Time Of Mind) 6:22
2-2 32-30 (Unreleased, World Gone Wrong) 3:06
2-3 Series Of Dreams (Unreleased, Oh Mercy) 6:26
2-4 God Knows (Unreleased, Oh Mercy) 3:07
2-5 Can’t Escape From You (Unreleased, December 2005) 5:12
2-6 Dignity (Unreleased, Oh Mercy) 5:24
2-7 Ring Them Bells (Live At Supper Club, NY – 17 Nov 1993) 4:59
2-8 Cocaine Blues (Live In Vienna, VA – 24 Aug 1997) 4:41
2-9 Ain’t Talkin’ (Alternate Version, Modern Times) 6:09
2-10 The Girl On The Greenbriar Shore (Live In Dunkerque, France – 30 June 1992) 2:24
2-11 Lonesome Day Blues (Live In Sunrise, FL – 1 Feb 2002) 7:36
2-12 Miss The Mississippi (Unreleased, 1992) 3:22
2-13 The Lonesome River (With Ralph Stanley, From Clinch Mountain Country) 3:05
2-14 ‘Cross The Green Mountain (From Gods And Generals Soundtrack) 8:15

EAC Log
Exact Audio Copy V0.99 prebeta 5 from 4. May 2009

EAC extraction logfile from 21. April 2013, 17:50

Bob Dylan / Tell Tale Signs – The Bootleg Series Vol. 8 (Disc 2)

Used drive : PLEXTOR DVDR PX-L890SA Adapter: 1 ID: 0

Read mode : Secure
Utilize accurate stream : Yes
Defeat audio cache : Yes
Make use of C2 pointers : No

Read offset correction : 6
Overread into Lead-In and Lead-Out : No
Fill up missing offset samples with silence : Yes
Delete leading and trailing silent blocks : No
Null samples used in CRC calculations : Yes
Used interface : Native Win32 interface for Win NT & 2000

Used output format : User Defined Encoder
Selected bitrate : 768 kBit/s
Quality : High
Add ID3 tag : No
Command line compressor : d:Program FilesExact Audio CopyFLACFLAC.EXE
Additional command line options : -T "DATE=%y" -T "GENRE=%m" -8 -V %s

TOC of the extracted CD

Track | Start | Length | Start sector | End sector
––––––––––––––––––––––––––––-
1 | 0:00.00 | 6:21.52 | 0 | 28626
2 | 6:21.52 | 3:05.47 | 28627 | 42548
3 | 9:27.24 | 6:26.24 | 42549 | 71522
4 | 15:53.48 | 3:07.03 | 71523 | 85550
5 | 19:00.51 | 5:12.29 | 85551 | 108979
6 | 24:13.05 | 5:23.64 | 108980 | 133268
7 | 29:36.69 | 4:58.56 | 133269 | 155674
8 | 34:35.50 | 4:40.48 | 155675 | 176722
9 | 39:16.23 | 6:08.48 | 176723 | 204370
10 | 45:24.71 | 2:24.25 | 204371 | 215195
11 | 47:49.21 | 7:35.63 | 215196 | 249383
12 | 55:25.09 | 3:21.47 | 249384 | 264505
13 | 58:46.56 | 3:04.46 | 264506 | 278351
14 | 61:51.27 | 8:14.58 | 278352 | 315459

Range status and errors

Selected range

Filename H:MUSICCOLLECTIONBob Dylan2008 The Bootleg Series Vol.8 Tell Tale SignsBob Dylan – Tell Tale Signs CD2.wav

Peak level 100.0 %
Range quality 100.0 %
Test CRC 3A51C889
Copy CRC 3A51C889
Copy OK

No errors occurred

AccurateRip summary

Track 1 cannot be verified as accurate (confidence 179) [10DA0911], AccurateRip returned [86135A15]
Track 2 cannot be verified as accurate (confidence 178) [8CF0CFE5], AccurateRip returned [E2803B85]
Track 3 cannot be verified as accurate (confidence 179) [AAB2979D], AccurateRip returned [94469FD1]
Track 4 cannot be verified as accurate (confidence 176) [1247471C], AccurateRip returned [69C99D64]
Track 5 cannot be verified as accurate (confidence 177) [A3447C70], AccurateRip returned [9857FF0C]
Track 6 cannot be verified as accurate (confidence 179) [F6E24EBD], AccurateRip returned [2B2C0E5A]
Track 7 cannot be verified as accurate (confidence 179) [6E996430], AccurateRip returned [78F69EF0]
Track 8 cannot be verified as accurate (confidence 179) [7B489F2D], AccurateRip returned [0A87F24A]
Track 9 cannot be verified as accurate (confidence 178) [A157F084], AccurateRip returned [B417306E]
Track 10 cannot be verified as accurate (confidence 179) [ACC309A5], AccurateRip returned [DBC1A1D5]
Track 11 cannot be verified as accurate (confidence 178) [D14F832A], AccurateRip returned [3D0B8E62]
Track 12 cannot be verified as accurate (confidence 178) [60C65553], AccurateRip returned [BE0001BA]
Track 13 cannot be verified as accurate (confidence 177) [048E8EB9], AccurateRip returned [FAAA0763]
Track 14 cannot be verified as accurate (confidence 176) [3BC44C11], AccurateRip returned [16718BD8]

No tracks could be verified as accurate
You may have a different pressing from the one(s) in the database

End of status report

===========================

Bob Dylan: Bootleg Series Vol. 1-10 (1991 - 2013) Re-up

CD14-15: Bob Dylan – Bootleg Series Vol. 9: The Witmark Demos 1962-1964 (2010) Repost
EAC | Flac(Image) + Cue + Log & MP3 CBR 320Kbps
2CD | Columbia, 88697761792 | ~ 564 or 354 Mb | Scans(jpg, 600dpi) -> 1219 Mb
Rock / Folk Rock / American Folk

Like any fledgling songwriter, Bob Dylan signed with a publishing company at the outset of his career. Publishers are standard practice for songwriters – it’s where the money comes in, as songs are published, performed, and covered – but in the early ‘60s there was an expectation that publishers would help place songs in the hands of appropriate singers, a practice Dylan effectively ended by popularizing writers singing their own songs, but in 1962, this self-sufficiency was a rarity. Even his 1962 debut contained only three Dylan originals, which in his case reflected his traditional folk roots, but Dylan needed a publisher for those three songs so John Hammond, who signed the singer/songwriter to Columbia, pointed him toward Leeds Music. Dylan cut a demo session for Leeds between the recording and release of Bob Dylan and when that album wound up stiffing, Leeds let him buy out his contract in the summer of 1962, which then led to him signing with M. Witmark & Sons publishing company. Between 1962 and 1964, a period that roughly spanned “Blowin’ in the Wind” to “Mr. Tambourine Man,” Dylan cut several demo sessions for Witmark, usually with the intent of the publisher pitching songs to other singers. Many of his early classics were first essayed here – “A Hard-Rain’s Gonna Fall,” “Masters of War,” “Don’t Think Twice It’s Alright,” “Boots of Spanish Leather,” “Girl from the North Country,” “The Times They Are A-Changin’” – and he also cut songs he never revisited. Some wound up with other artists – “Seven Curses,” “Tomorrow Is a Long Time,” “Mama, You Been on My Mind” – some were lost to time, leaking out on bootlegs until they officially surfaced on 2010’s The Bootleg Series, Vol. 9: The Witmark Demos: 1962-1964.

Many of these recordings have been heavily bootlegged, some excerpted on previous Bootleg Series, but they’ve never been presented as completely and in as great fidelity as they are on this two-disc set. Great fidelity seems almost unnecessary for such simple recordings, although the cleanliness enhances the intimacy, so familiar songs are lent freshness when surrounded by the thumping of a microphone or closing of a door. This disarming intimacy – verging on eavesdropping – is as attractive as the 15 songs that never appeared on an official Dylan album. Some of these songs are throwaways – “Bound to Lose, Bound to Win” lacks finished verses, with Bob promising that he’ll write them down later – but there’s considerable charm in hearing Dylan tossing off a song, plus some of these half-forgotten discards, like “Guess I’m Doing Fine” and “All Over You,” are still quite strong. Nevertheless, the real appeal of this volume of the Bootleg Series is to listen as Dylan develops as a songwriter and artist. The songs spilled forth at an astonishing rate, and the great majority were not only superb, they were different from what came before, with his Woody Guthrie homage quickly replaced by a quick-witted protest singer who then started to delve into the personal in revolutionary ways. At its core, these demos are the sound of Dylan becoming Bob Dylan, and it’s an evolution that’s spellbinding.

by Stephen Thomas Erlewine, AMG

Tracklist CD1:

1-1 Man On The Street (Fragment)
1-2 Hard Times In New York Town
1-3 Poor Boy Blues
1-4 Ballad For A Friend
1-5 Rambling, Gambling Willie
1-6 Talking Bear Mountain Picnic Massacre Blues
1-7 Standing On The Highway
1-8 Man On The Street
1-9 Blowin’ In The Wind
1-10 Long Ago, Far Away
1-11 A Hard Rain’s A-Gonna Fall
1-12 Tomorrow Is A Long Time
1-13 The Death Of Emmett Till
1-14 Let Me Die In My Footsteps
1-15 Ballad Of Hollis Brown
1-16 Quit Your Low Down Ways
1-17 Baby, I’m In The Mood For You
1-18 Bound To Lose, Bound To Win
1-19 All Over You
1-20 I’d Hate To Be You On That Dreadful Day
1-21 Long Time Gone
1-22 Talkin’ John Birch Paranoid Blues
1-23 Masters Of War
1-24 Oxford Town
1-25 Farewell

EAC Log
Exact Audio Copy V0.99 prebeta 5 from 4. May 2009

EAC extraction logfile from 28. April 2013, 17:38

Bob Dylan / The Witmark Demos: 1962-1964 (The Bootleg Series Vol. 9)

Used drive : PLEXTOR DVDR PX-L890SA Adapter: 1 ID: 0

Read mode : Secure
Utilize accurate stream : Yes
Defeat audio cache : Yes
Make use of C2 pointers : No

Read offset correction : 6
Overread into Lead-In and Lead-Out : No
Fill up missing offset samples with silence : Yes
Delete leading and trailing silent blocks : No
Null samples used in CRC calculations : Yes
Used interface : Native Win32 interface for Win NT & 2000

Used output format : User Defined Encoder
Selected bitrate : 768 kBit/s
Quality : High
Add ID3 tag : No
Command line compressor : d:Program FilesExact Audio CopyFLACFLAC.EXE
Additional command line options : -T "DATE=%y" -T "GENRE=%m" -8 -V %s

TOC of the extracted CD

Track | Start | Length | Start sector | End sector
––––––––––––––––––––––––––––-
1 | 0:00.00 | 1:07.48 | 0 | 5072
2 | 1:07.48 | 1:57.53 | 5073 | 13900
3 | 3:05.26 | 3:01.51 | 13901 | 27526
4 | 6:07.02 | 2:23.40 | 27527 | 38291
5 | 8:30.42 | 3:38.55 | 38292 | 54696
6 | 12:09.22 | 3:42.29 | 54697 | 71375
7 | 15:51.51 | 2:32.23 | 71376 | 82798
8 | 18:23.74 | 1:30.53 | 82799 | 89601
9 | 19:54.52 | 2:38.05 | 89602 | 101456
10 | 22:32.57 | 2:29.63 | 101457 | 112694
11 | 25:02.45 | 6:49.73 | 112695 | 143442
12 | 31:52.43 | 3:46.58 | 143443 | 160450
13 | 35:39.26 | 4:32.03 | 160451 | 180853
14 | 40:11.29 | 1:37.08 | 180854 | 188136
15 | 41:48.37 | 4:08.08 | 188137 | 206744
16 | 45:56.45 | 2:50.10 | 206745 | 219504
17 | 48:46.55 | 1:36.34 | 219505 | 226738
18 | 50:23.14 | 1:19.33 | 226739 | 232696
19 | 51:42.47 | 3:52.54 | 232697 | 250150
20 | 55:35.26 | 2:00.71 | 250151 | 259221
21 | 57:36.22 | 3:46.45 | 259222 | 276216
22 | 61:22.67 | 3:17.05 | 276217 | 290996
23 | 64:39.72 | 4:23.63 | 290997 | 310784
24 | 69:03.60 | 2:33.30 | 310785 | 322289
25 | 71:37.15 | 3:58.52 | 322290 | 340191

Range status and errors

Selected range

Filename H:MUSICCOLLECTIONBob Dylan2010 The Bootleg Series Vol. 9 The Witmark Demos 1962-1964Bob Dylan – The Witmark Demos 1962-1964 CD1.wav

Peak level 100.0 %
Range quality 100.0 %
Test CRC DAE10A7B
Copy CRC DAE10A7B
Copy OK

No errors occurred

AccurateRip summary

Track 1 accurately ripped (confidence 87) [DC9C2B58]
Track 2 accurately ripped (confidence 87) [9DAE23C3]
Track 3 accurately ripped (confidence 87) [883A7F5B]
Track 4 accurately ripped (confidence 87) [5738C4A8]
Track 5 accurately ripped (confidence 87) [1679A203]
Track 6 accurately ripped (confidence 87) [6210A6A4]
Track 7 accurately ripped (confidence 87) [73937B47]
Track 8 accurately ripped (confidence 88) [D5FF952E]
Track 9 accurately ripped (confidence 88) [2CE3ED9A]
Track 10 accurately ripped (confidence 88) [CB6BA8B8]
Track 11 accurately ripped (confidence 87) [D1983379]
Track 12 accurately ripped (confidence 88) [057DA3DC]
Track 13 accurately ripped (confidence 88) [64BB97DC]
Track 14 accurately ripped (confidence 86) [CFD8644A]
Track 15 accurately ripped (confidence 87) [43A90EF0]
Track 16 accurately ripped (confidence 86) [770D00B0]
Track 17 accurately ripped (confidence 87) [144BF1A3]
Track 18 accurately ripped (confidence 88) [D686E575]
Track 19 accurately ripped (confidence 87) [EFC37496]
Track 20 accurately ripped (confidence 87) [2D8B3D4A]
Track 21 accurately ripped (confidence 88) [5712C3AF]
Track 22 accurately ripped (confidence 87) [F192B846]
Track 23 accurately ripped (confidence 87) [2978C3E5]
Track 24 accurately ripped (confidence 87) [1436CA13]
Track 25 accurately ripped (confidence 85) [8CA5E721]

All tracks accurately ripped

End of status report

Tracklist CD2:

2-1 Don’t Think Twice, It’s All Right
2-2 Walkin’ Down The Line
2-3 I Shall Be Free
2-4 Bob Dylan’s Blues
2-5 Bob Dylan’s Dream
2-6 Boots Of Spainish Leather
2-7 Girl From North Country
2-8 Seven Curses
2-9 Hero Blues
2-10 Watcha Gonna Do?
2-11 Gypsy Lou
2-12 Ain’t Gonna Grieve
2-13 John Brown
2-14 Only A Hobo
2-15 When The Ship Comes In
2-16 The Times They Are A-Changin’
2-17 Paths Of Victory
2-18 Guess I’m Doing Fine
2-19 Baby, Let Me Follow You Down
2-20 Mama, You Been On My Mind
2-21 Mr. Tambourine Man
2-22 I’ll Keep It With Mine

EAC Log
Exact Audio Copy V0.99 prebeta 5 from 4. May 2009

EAC extraction logfile from 28. April 2013, 18:07

Bob Dylan / The Witmark Demos: 1962-1964 (The Bootleg Series Vol. 9)

Used drive : PLEXTOR DVDR PX-L890SA Adapter: 1 ID: 0

Read mode : Secure
Utilize accurate stream : Yes
Defeat audio cache : Yes
Make use of C2 pointers : No

Read offset correction : 6
Overread into Lead-In and Lead-Out : No
Fill up missing offset samples with silence : Yes
Delete leading and trailing silent blocks : No
Null samples used in CRC calculations : Yes
Used interface : Native Win32 interface for Win NT & 2000

Used output format : User Defined Encoder
Selected bitrate : 768 kBit/s
Quality : High
Add ID3 tag : No
Command line compressor : d:Program FilesExact Audio CopyFLACFLAC.EXE
Additional command line options : -T "DATE=%y" -T "GENRE=%m" -8 -V %s

TOC of the extracted CD

Track | Start | Length | Start sector | End sector
––––––––––––––––––––––––––––-
1 | 0:00.00 | 3:38.23 | 0 | 16372
2 | 3:38.23 | 3:23.51 | 16373 | 31648
3 | 7:01.74 | 4:30.07 | 31649 | 51905
4 | 11:32.06 | 1:58.14 | 51906 | 60769
5 | 13:30.20 | 3:53.07 | 60770 | 78251
6 | 17:23.27 | 5:49.13 | 78252 | 104439
7 | 23:12.40 | 3:09.21 | 104440 | 118635
8 | 26:21.61 | 3:13.19 | 118636 | 133129
9 | 29:35.05 | 1:36.23 | 133130 | 140352
10 | 31:11.28 | 3:36.20 | 140353 | 156572
11 | 34:47.48 | 3:45.08 | 156573 | 173455
12 | 38:32.56 | 1:28.70 | 173456 | 180125
13 | 40:01.51 | 4:19.73 | 180126 | 199623
14 | 44:21.49 | 2:25.43 | 199624 | 210541
15 | 46:47.17 | 2:56.37 | 210542 | 223778
16 | 49:43.54 | 3:03.22 | 223779 | 237525
17 | 52:47.01 | 4:11.25 | 237526 | 256375
18 | 56:58.26 | 4:08.24 | 256376 | 274999
19 | 61:06.50 | 1:56.00 | 275000 | 283699
20 | 63:02.50 | 2:14.10 | 283700 | 293759
21 | 65:16.60 | 5:55.30 | 293760 | 320414
22 | 71:12.15 | 3:34.47 | 320415 | 336511

Range status and errors

Selected range

Filename H:MUSICCOLLECTIONBob Dylan2010 The Bootleg Series Vol. 9 The Witmark Demos 1962-1964Bob Dylan – The Witmark Demos 1962-1964 CD2.wav

Peak level 100.0 %
Range quality 99.9 %
Test CRC 5FF0E943
Copy CRC 5FF0E943
Copy OK

No errors occurred

AccurateRip summary

Track 1 accurately ripped (confidence 50) [B122D062]
Track 2 accurately ripped (confidence 50) [520C96E0]
Track 3 accurately ripped (confidence 50) [7DAA91C5]
Track 4 accurately ripped (confidence 49) [930F3A96]
Track 5 accurately ripped (confidence 50) [D31C3496]
Track 6 accurately ripped (confidence 50) [CF28FD9C]
Track 7 accurately ripped (confidence 50) [4E98AC95]
Track 8 accurately ripped (confidence 50) [073BCD77]
Track 9 accurately ripped (confidence 50) [3FA05599]
Track 10 accurately ripped (confidence 50) [955F4A33]
Track 11 accurately ripped (confidence 50) [806E751D]
Track 12 accurately ripped (confidence 50) [3CD7E94A]
Track 13 accurately ripped (confidence 50) [42776E67]
Track 14 accurately ripped (confidence 50) [F96E2C61]
Track 15 accurately ripped (confidence 50) [BF478CB3]
Track 16 accurately ripped (confidence 50) [EA200CD8]
Track 17 accurately ripped (confidence 50) [8E6819DC]
Track 18 accurately ripped (confidence 50) [5AB4D034]
Track 19 accurately ripped (confidence 50) [065B1DEE]
Track 20 accurately ripped (confidence 50) [6466CF7B]
Track 21 accurately ripped (confidence 50) [E76F8E4C]
Track 22 accurately ripped (confidence 49) [37CE761D]

All tracks accurately ripped

End of status report

===========================

Bob Dylan: Bootleg Series Vol. 1-10 (1991 - 2013) Re-up

CD16-19: Bob Dylan – Bootleg Series Vol. 10: Another Self Portrait 1969-1971 (2013) Deluxe Edition
EAC | Flac(Image) + Cue + Log & MP3 CBR 320Kbps
4CD | Columbia, 88883 73488 2 | ~ 1538 or 586 Mb | Scans(jpg, 600dpi) -> 1463 Mb
Rock / Folk Rock / American Folk

Another Self Portrait, the tenth volume in Bob Dylan’s official bootleg series, assembles a slew of unreleased tracks, un-and over-dubbed alternate takes, and demos, mostly from 1970’s Self Portrait and New Morning sessions – they were recorded simultaneously and released within months of one another – and other material. Dylan restlessly dug into the fakebook of folk, blues, and country tunes that nourished him from the beginning. The few original songs are minor ones. Twenty-six of these 35 selections were recorded between March and June. Dylan is in fine voice and he tries on many: some raspy, others crystal clear, all of them bold. The interconnected nature of these albums is revealed with the opening demo for "Went to See the Gypsy" (used on NM). It’s just Dylan and guitarist David Bromberg. (Another take recorded three months later features just Dylan on electric piano.) There are two undubbed takes of "Little Sadie" at different tempos; two of "Time Passes Slowly" – the first a basic folk-rock read, the latter an aggressive one with Al Kooper’s B-3 swelling to a crescendo from the jump. Dylan and Bromberg, with Kooper on piano, deliver a haunted, undubbed "Days of 49." Many of the unreleased tunes are gems. "Pretty Saro" – with Dylan in his cleanest Nashville Skyline croon displaying a real range – and the vocal and piano read of "Spanish Is the Loving Tongue" are deeply moving love songs. "House Carpenter" is a high lonesome blues. The skeletal "Alberta #3" puts the versions from SP to shame. Eric Andersen’s "Thirsty Boots" has Bromberg’s spidery guitar weaving a separate lyric through Dylan’s vocal. A demo of "When I Paint My Masterpiece" from 1971, contains slightly different (better) lyrics. The stripped-down "Copper Kettle" stands out when contrasted with its released version. Dylan was impatiently experimenting with arrangements on both records, particularly the latter, and some don’t work. "If Not for You" features a violin instead of George Harrison’s guitar. The unreleased "Working on a Guru" is almost a throwaway, but Harrison’s blues-rock guitar playing smokes. The alternate "New Morning," with a brassy, Stax-style horn arrangement, is great, but the full orchestral overdub on "Sign on a Window" – complete with harp – fails, as does the spoken word with female gospel backing chorus on "If Dogs Run Free." Arguably, of the NM material, Dylan made the right choices for the finished album, which doesn’t make what’s here less interesting. The remainder of these tracks includes "Minstrel Boy," an unreleased Basement Tapes number, and two tunes from the Isle of Wight with the Band, some alternates of Nashville Skyline, and others from 1971. Another Self Portrait asks many questions, but there is one that hounds because it’s unanswerable, especially in regard to its namesake: why did Dylan record all this material, in this way, and then release something entirely different? It doesn’t matter. For fans, this is more than a curiosity, it’s an indispensable addition to the catalog.

by Thom Jurek, AMG

Tracklist CD1:

1. "Went to See the Gypsy" (demo version) – 3:00
2. "Little Sadie" (without overdubs, Self Portrait) (Traditional) – 2:02
3. "Pretty Saro" (unreleased, Self Portrait) – 2:16
4. "Alberta #3" (alternate version, Self Portrait) (Traditional) – 2:37
5. "Spanish is the Loving Tongue" (unreleased, New Morning) (Charles Badger Clark) – 3:51
6. "Annie’s Going to Sing Her Song" (unreleased, Self Portrait) (Tom Paxton) – 2:22
7. "Time Passes Slowly #1" (alternate version, New Morning) – 2:18
8. "Only a Hobo" (unreleased, Greatest Hits II) – 3:25
9. "Minstrel Boy" (unreleased, The Basement Tapes) – 1:39
10. "I Threw It All Away" (alternate version, Nashville Skyline) – 2:25
11. "Railroad Bill" (unreleased, Self Portrait) (Traditional) – 2:44
12. "Thirsty Boots" (unreleased, Self Portrait) (Eric Andersen) – 4:06
13. "This Evening So Soon" (unreleased, Self Portrait) – 4:49
14. "These Hands" (unreleased, Self Portrait) – 3:43
15. "In Search of Little Sadie" (without overdubs, Self Portrait) (Traditional) – 2:26
16. "House Carpenter" (unreleased, Self Portrait) (Traditional) – 5:59
17. "All the Tired Horses" (without overdubs, Self Portrait) – 1:15

EAC Log
Exact Audio Copy V0.99 prebeta 5 from 4. May 2009

EAC extraction logfile from 3. September 2013, 18:25

Bob Dylan / Another Self Portrait (1969-1971): The Bootleg Series Vol. 10

Used drive : PLEXTOR DVDR PX-L890SA Adapter: 1 ID: 0

Read mode : Secure
Utilize accurate stream : Yes
Defeat audio cache : Yes
Make use of C2 pointers : No

Read offset correction : 6
Overread into Lead-In and Lead-Out : No
Fill up missing offset samples with silence : Yes
Delete leading and trailing silent blocks : No
Null samples used in CRC calculations : Yes
Used interface : Native Win32 interface for Win NT & 2000

Used output format : User Defined Encoder
Selected bitrate : 768 kBit/s
Quality : High
Add ID3 tag : No
Command line compressor : d:Program FilesExact Audio CopyFLACFLAC.EXE
Additional command line options : -T "DATE=%y" -T "GENRE=%m" -8 -V %s

TOC of the extracted CD

Track | Start | Length | Start sector | End sector
––––––––––––––––––––––––––––-
1 | 0:00.00 | 3:00.46 | 0 | 13545
2 | 3:00.46 | 2:02.22 | 13546 | 22717
3 | 5:02.68 | 2:16.50 | 22718 | 32967
4 | 7:19.43 | 2:37.08 | 32968 | 44750
5 | 9:56.51 | 3:51.38 | 44751 | 62113
6 | 13:48.14 | 2:23.43 | 62114 | 72881
7 | 16:11.57 | 2:18.05 | 72882 | 83236
8 | 18:29.62 | 3:25.36 | 83237 | 98647
9 | 21:55.23 | 1:41.70 | 98648 | 106292
10 | 23:37.18 | 2:25.42 | 106293 | 117209
11 | 26:02.60 | 2:47.47 | 117210 | 129781
12 | 28:50.32 | 4:07.45 | 129782 | 148351
13 | 32:58.02 | 4:49.36 | 148352 | 170062
14 | 37:47.38 | 3:43.03 | 170063 | 186790
15 | 41:30.41 | 2:28.65 | 186791 | 197955
16 | 43:59.31 | 6:00.71 | 197956 | 225026
17 | 50:00.27 | 1:15.16 | 225027 | 230667

Range status and errors

Selected range

Filename H:MUSICCOLLECTIONBob DylanBootleg Series2013 The Bootleg Series Vol10 Another Self Portrait (1969-1971) Deluxe EditionBob Dylan – Another Self Portrait (1969-1971) CD 1.wav

Peak level 100.0 %
Range quality 99.9 %
Test CRC F130C384
Copy CRC F130C384
Copy OK

No errors occurred

AccurateRip summary

Track 1 cannot be verified as accurate (confidence 6) [2733521D], AccurateRip returned [94B6682B]
Track 2 cannot be verified as accurate (confidence 6) [16B89397], AccurateRip returned [F877CB0D]
Track 3 cannot be verified as accurate (confidence 6) [0EB1D11C], AccurateRip returned [B56B230C]
Track 4 cannot be verified as accurate (confidence 6) [E1BAE0F0], AccurateRip returned [51C8C15E]
Track 5 cannot be verified as accurate (confidence 6) [FA172612], AccurateRip returned [46B4CE31]
Track 6 cannot be verified as accurate (confidence 6) [F2C11D17], AccurateRip returned [B2B6F9FD]
Track 7 cannot be verified as accurate (confidence 6) [4B9D644D], AccurateRip returned [2FB970E4]
Track 8 cannot be verified as accurate (confidence 6) [4429C7F8], AccurateRip returned [B0B32AC4]
Track 9 cannot be verified as accurate (confidence 6) [26E3AF79], AccurateRip returned [AE857ABA]
Track 10 cannot be verified as accurate (confidence 6) [762C3611], AccurateRip returned [A296500E]
Track 11 cannot be verified as accurate (confidence 6) [A83EDA38], AccurateRip returned [885EAD01]
Track 12 cannot be verified as accurate (confidence 6) [BD12B09E], AccurateRip returned [DF9B08BE]
Track 13 cannot be verified as accurate (confidence 6) [863C75E7], AccurateRip returned [B648EF4B]
Track 14 cannot be verified as accurate (confidence 6) [F2ED281F], AccurateRip returned [20EDC862]
Track 15 cannot be verified as accurate (confidence 6) [8DB1C4EA], AccurateRip returned [7B0F8EB8]
Track 16 cannot be verified as accurate (confidence 6) [8A5EDDE9], AccurateRip returned [9B73B54F]
Track 17 cannot be verified as accurate (confidence 6) [B52F0E4C], AccurateRip returned [553E28AC]

No tracks could be verified as accurate
You may have a different pressing from the one(s) in the database

End of status report

Tracklist CD2:

1. "If Not for You" (alternate version, New Morning) – 2:29
2. "Wallflower" (alternate version, 1971) – 2:18
3. "Wigwam" (original version without overdubs, Self Portrait) – 3:10
4. "Days of ’49" (original version without overdubs, Self Portrait) (Alan Lomax, John Lomax, Frank Warner) – 5:13
5. "Working on a Guru" (unreleased, New Morning) – 3:43
6. "Country Pie" (alternate version, Nashville Skyline) – 1:27
7. "I’ll Be Your Baby Tonight" (Live at the Isle of Wight Festival, August 31, 1969) – 3:31
8. "Highway 61 Revisited" (Live at the Isle of Wight Festival, August 31, 1969) – 3:39
9. "Copper Kettle" (without overdubs, Self Portrait) (Alfred Frank Beddoe) – 3:35
10. "Bring Me a Little Water" (unreleased, New Morning) – 3:58
11. "Sign on the Window" (with orchestral overdubs, New Morning) – 3:51
12. "Tattle O’Day" (unreleased, Self Portrait) (Eric Andersen) – 3:49
13. "If Dogs Run Free" (alternate version, New Morning) – 4:10
14. "New Morning" (with horn section overdubs, New Morning) – 4:04
15. "Went to See the Gypsy" (alternate version, New Morning) – 3:33
16. "Belle Isle" (without overdubs, Self Portrait) (Traditional) – 2:35
17. "Time Passes Slowly #2" (alternate version #2, New Morning) – 3:02
18. "When I Paint My Masterpiece" (demo version) – 3:53

EAC Log
Exact Audio Copy V0.99 prebeta 5 from 4. May 2009

EAC extraction logfile from 3. September 2013, 18:53

Bob Dylan / Another Self Portrait (1969-1971): The Bootleg Series Vol. 10

Used drive : PLEXTOR DVDR PX-L890SA Adapter: 1 ID: 0

Read mode : Secure
Utilize accurate stream : Yes
Defeat audio cache : Yes
Make use of C2 pointers : No

Read offset correction : 6
Overread into Lead-In and Lead-Out : No
Fill up missing offset samples with silence : Yes
Delete leading and trailing silent blocks : No
Null samples used in CRC calculations : Yes
Used interface : Native Win32 interface for Win NT & 2000

Used output format : User Defined Encoder
Selected bitrate : 768 kBit/s
Quality : High
Add ID3 tag : No
Command line compressor : d:Program FilesExact Audio CopyFLACFLAC.EXE
Additional command line options : -T "DATE=%y" -T "GENRE=%m" -8 -V %s

TOC of the extracted CD

Track | Start | Length | Start sector | End sector
––––––––––––––––––––––––––––-
1 | 0:00.00 | 2:29.64 | 0 | 11238
2 | 2:29.64 | 2:18.56 | 11239 | 21644
3 | 4:48.45 | 3:10.43 | 21645 | 35937
4 | 7:59.13 | 5:13.67 | 35938 | 59479
5 | 13:13.05 | 3:43.45 | 59480 | 76249
6 | 16:56.50 | 1:27.02 | 76250 | 82776
7 | 18:23.52 | 3:31.42 | 82777 | 98643
8 | 21:55.19 | 3:39.17 | 98644 | 115085
9 | 25:34.36 | 3:35.45 | 115086 | 131255
10 | 29:10.06 | 4:00.32 | 131256 | 149287
11 | 33:10.38 | 3:51.49 | 149288 | 166661
12 | 37:02.12 | 3:49.01 | 166662 | 183837
13 | 40:51.13 | 4:10.62 | 183838 | 202649
14 | 45:02.00 | 4:04.37 | 202650 | 220986
15 | 49:06.37 | 3:33.43 | 220987 | 237004
16 | 52:40.05 | 2:35.64 | 237005 | 248693
17 | 55:15.69 | 3:03.33 | 248694 | 262451
18 | 58:19.27 | 3:53.16 | 262452 | 279942

Range status and errors

Selected range

Filename H:MUSICCOLLECTIONBob DylanBootleg Series2013 The Bootleg Series Vol10 Another Self Portrait (1969-1971) Deluxe EditionBob Dylan – Another Self Portrait (1969-1971) CD 2.wav

Peak level 96.7 %
Range quality 100.0 %
Test CRC 14CB1E2B
Copy CRC 14CB1E2B
Copy OK

No errors occurred

AccurateRip summary

Track 1 cannot be verified as accurate (confidence 6) [177D7078], AccurateRip returned [D67B6E39]
Track 2 cannot be verified as accurate (confidence 5) [445513BC], AccurateRip returned [98885417]
Track 3 cannot be verified as accurate (confidence 5) [AEBBF3AA], AccurateRip returned [16E645D7]
Track 4 cannot be verified as accurate (confidence 5) [A3A1430A], AccurateRip returned [52337CAD]
Track 5 cannot be verified as accurate (confidence 6) [739FA70D], AccurateRip returned [78205835]
Track 6 cannot be verified as accurate (confidence 6) [8609A817], AccurateRip returned [D775A218]
Track 7 cannot be verified as accurate (confidence 6) [EF51A9B4], AccurateRip returned [652463AC]
Track 8 cannot be verified as accurate (confidence 6) [907FBDFB], AccurateRip returned [77F6FC23]
Track 9 cannot be verified as accurate (confidence 6) [E81FD4A1], AccurateRip returned [917A80C2]
Track 10 cannot be verified as accurate (confidence 5) [88CEA98A], AccurateRip returned [F739BE74]
Track 11 cannot be verified as accurate (confidence 5) [AEB6A57A], AccurateRip returned [1B88B31B]
Track 12 cannot be verified as accurate (confidence 6) [4257D4B3], AccurateRip returned [4271C408]
Track 13 cannot be verified as accurate (confidence 5) [D2135BB4], AccurateRip returned [261EE7E3]
Track 14 cannot be verified as accurate (confidence 5) [54F5B79F], AccurateRip returned [36BF0E86]
Track 15 cannot be verified as accurate (confidence 5) [85A66000], AccurateRip returned [322AF9F6]
Track 16 cannot be verified as accurate (confidence 6) [7AA2E322], AccurateRip returned [A3C836D5]
Track 17 cannot be verified as accurate (confidence 6) [DDBEF267], AccurateRip returned [8312922C]
Track 18 cannot be verified as accurate (confidence 6) [470C35B8], AccurateRip returned [7B0B40DF]

No tracks could be verified as accurate
You may have a different pressing from the one(s) in the database

End of status report

Tracklist CD3 – Isle of Wight Festival 1969:

1. "Intro" – 0:40
2. "She Belongs to Me" – 3:01
3. "I Threw It All Away" – 3:07
4. "Maggie’s Farm" – 4:00
5. "Wild Mountain Thyme" (Traditional) – 2:51
6. "It Ain’t Me Babe" – 3:09
7. "To Ramona" – 2:25
8. "Mr. Tambourine Man" – 3:08
9. "I Dreamed I Saw St. Augustine" – 3:32
10. "Lay Lady Lay" – 3:54
11. "Highway 61 Revisited" – 3:47
12. "One Too Many Mornings" – 2:38
13. "I Pity the Poor Immigrant" – 3:47
14. "Like a Rolling Stone" – 5:25
15. "I’ll Be Your Baby Tonight" – 3:30
16. "Quinn the Eskimo (The Mighty Quinn)" – 2:49
17. "Minstrel Boy" – 3:48
18. "Rainy Day Women#12 & 35" – 3:17

EAC Log
Exact Audio Copy V0.99 prebeta 5 from 4. May 2009

EAC extraction logfile from 3. September 2013, 19:14

Bob Dylan / Another Self Portrait (1969-1971): The Bootleg Series Vol. 10

Used drive : PLEXTOR DVDR PX-L890SA Adapter: 1 ID: 0

Read mode : Secure
Utilize accurate stream : Yes
Defeat audio cache : Yes
Make use of C2 pointers : No

Read offset correction : 6
Overread into Lead-In and Lead-Out : No
Fill up missing offset samples with silence : Yes
Delete leading and trailing silent blocks : No
Null samples used in CRC calculations : Yes
Used interface : Native Win32 interface for Win NT & 2000

Used output format : User Defined Encoder
Selected bitrate : 768 kBit/s
Quality : High
Add ID3 tag : No
Command line compressor : d:Program FilesExact Audio CopyFLACFLAC.EXE
Additional command line options : -T "DATE=%y" -T "GENRE=%m" -8 -V %s

TOC of the extracted CD

Track | Start | Length | Start sector | End sector
––––––––––––––––––––––––––––-
1 | 0:00.00 | 0:40.03 | 0 | 3002
2 | 0:40.03 | 3:01.44 | 3003 | 16621
3 | 3:41.47 | 3:07.32 | 16622 | 30678
4 | 6:49.04 | 4:00.69 | 30679 | 48747
5 | 10:49.73 | 2:51.44 | 48748 | 61616
6 | 13:41.42 | 3:09.23 | 61617 | 75814
7 | 16:50.65 | 2:25.68 | 75815 | 86757
8 | 19:16.58 | 3:08.60 | 86758 | 100917
9 | 22:25.43 | 3:32.11 | 100918 | 116828
10 | 25:57.54 | 3:59.09 | 116829 | 134762
11 | 29:56.63 | 3:50.31 | 134763 | 152043
12 | 33:47.19 | 2:38.70 | 152044 | 163963
13 | 36:26.14 | 4:09.23 | 163964 | 182661
14 | 40:35.37 | 5:25.05 | 182662 | 207041
15 | 46:00.42 | 3:59.46 | 207042 | 225012
16 | 50:00.13 | 3:23.11 | 225013 | 240248
17 | 53:23.24 | 3:58.72 | 240249 | 258170
18 | 57:22.21 | 3:17.33 | 258171 | 272978

Range status and errors

Selected range

Filename H:MUSICCOLLECTIONBob DylanBootleg Series2013 The Bootleg Series Vol10 Another Self Portrait (1969-1971) Deluxe EditionBob Dylan – Another Self Portrait (1969-1971) CD 32.wav

Peak level 100.0 %
Range quality 99.9 %
Test CRC 063A309D
Copy CRC 063A309D
Copy OK

No errors occurred

AccurateRip summary

Track 1 cannot be verified as accurate (confidence 3) [B293CFD7], AccurateRip returned [8FB28BD1]
Track 2 cannot be verified as accurate (confidence 3) [652BE8AE], AccurateRip returned [4BC96D15]
Track 3 cannot be verified as accurate (confidence 3) [BFFF36A0], AccurateRip returned [49CA00CF]
Track 4 cannot be verified as accurate (confidence 3) [5271FBD9], AccurateRip returned [B9C52DBB]
Track 5 cannot be verified as accurate (confidence 3) [31331BD0], AccurateRip returned [A0E7CBDF]
Track 6 cannot be verified as accurate (confidence 3) [40C7018F], AccurateRip returned [713EFD64]
Track 7 cannot be verified as accurate (confidence 3) [B5F650A9], AccurateRip returned [3C438BD6]
Track 8 cannot be verified as accurate (confidence 3) [C783B82D], AccurateRip returned [EE740B6D]
Track 9 cannot be verified as accurate (confidence 3) [7EF3619C], AccurateRip returned [316343CF]
Track 10 cannot be verified as accurate (confidence 3) [9707A933], AccurateRip returned [868EA8DD]
Track 11 cannot be verified as accurate (confidence 3) [E63F9F19], AccurateRip returned [7F6ADEAF]
Track 12 cannot be verified as accurate (confidence 3) [6FA46EB3], AccurateRip returned [485C5329]
Track 13 cannot be verified as accurate (confidence 3) [52647C9C], AccurateRip returned [15973D2A]
Track 14 cannot be verified as accurate (confidence 3) [49BFCF7B], AccurateRip returned [1A7FE187]
Track 15 cannot be verified as accurate (confidence 3) [E540337C], AccurateRip returned [DC917266]
Track 16 cannot be verified as accurate (confidence 3) [327E5851], AccurateRip returned [4468742D]
Track 17 cannot be verified as accurate (confidence 3) [A4223456], AccurateRip returned [A97B76D4]
Track 18 cannot be verified as accurate (confidence 3) [A4953D78], AccurateRip returned [73A3B4F8]

No tracks could be verified as accurate
You may have a different pressing from the one(s) in the database

End of status report

Tracklist CD4 – Self Portrait (2013 remaster):

1. "All the Tired Horses" – 3:12
2. "Alberta #1" (Traditional) – 2:57
3. "I Forgot More Than You’ll Ever Know" (Cecil A. Null) – 2:23
4. "Days of 49" (Alan Lomax, John Lomax, Frank Warner)– 5:27
5. "Early Mornin’ Rain" (Gordon Lightfoot) – 3:34
6. "In Search of Little Sadie" (Traditional) – 2:28
7. "Let It Be Me" (Gilbert Bécaud, Mann Curtis, Pierre Delanoë) – 3:00
8. "Little Sadie" (Traditional) – 2:00
9. "Woogie Boogie" – 2:06
10. "Belle Isle" (Traditional) – 2:30
11. "Living the Blues" – 2:42
12. "Like a Rolling Stone" (Live at the Isle of Wight Festival, August 31, 1969) – 5:18
13. "Copper Kettle" (Alfred Frank Beddoe) – 3:34
14. "Gotta Travel On" (Paul Clayton, Larry Ehrlich, David Lazar, Tom Six) – 3:08
15. "Blue Moon" (Lorenz Hart, Richard Rodgers) – 2:29
16. "The Boxer" (Paul Simon) – 2:48
17. "The Mighty Quinn (Quinn the Eskimo)" (Live at the Isle of Wight Festival, August 31, 1969) – 2:48
18. "Take Me as I Am (Or Let Me Go)" (Boudleaux Bryant) – 3:03
19. "Take a Message to Mary" (Felice Bryant, Boudleaux Bryant) – 2:46
20. "It Hurts Me Too" (Traditional) – 3:15
21. "Minstrel Boy" (Live at the Isle of Wight Festival, August 31, 1969) – 3:33
22. "She Belongs to Me" (Live at the Isle of Wight Festival, August 31, 1969) – 2:44
23. "Wigwam" – 3:09
24. "Alberta #2" (Traditional) – 3:12

EAC Log
Exact Audio Copy V0.99 prebeta 5 from 4. May 2009

EAC extraction logfile from 3. September 2013, 19:36

Bob Dylan / Another Self Portrait (1969-1971): The Bootleg Series Vol. 10

Used drive : PLEXTOR DVDR PX-L890SA Adapter: 1 ID: 0

Read mode : Secure
Utilize accurate stream : Yes
Defeat audio cache : Yes
Make use of C2 pointers : No

Read offset correction : 6
Overread into Lead-In and Lead-Out : No
Fill up missing offset samples with silence : Yes
Delete leading and trailing silent blocks : No
Null samples used in CRC calculations : Yes
Used interface : Native Win32 interface for Win NT & 2000

Used output format : User Defined Encoder
Selected bitrate : 768 kBit/s
Quality : High
Add ID3 tag : No
Command line compressor : d:Program FilesExact Audio CopyFLACFLAC.EXE
Additional command line options : -T "DATE=%y" -T "GENRE=%m" -8 -V %s

TOC of the extracted CD

Track | Start | Length | Start sector | End sector
––––––––––––––––––––––––––––-
1 | 0:00.00 | 3:13.07 | 0 | 14481
2 | 3:13.07 | 2:57.64 | 14482 | 27820
3 | 6:10.71 | 2:25.17 | 27821 | 38712
4 | 8:36.13 | 5:28.53 | 38713 | 63365
5 | 14:04.66 | 3:37.74 | 63366 | 79714
6 | 17:42.65 | 2:31.21 | 79715 | 91060
7 | 20:14.11 | 3:01.18 | 91061 | 104653
8 | 23:15.29 | 2:01.44 | 104654 | 113772
9 | 25:16.73 | 2:08.61 | 113773 | 123433
10 | 27:25.59 | 2:33.08 | 123434 | 134916
11 | 29:58.67 | 2:44.10 | 134917 | 147226
12 | 32:43.02 | 5:21.55 | 147227 | 171356
13 | 38:04.57 | 3:36.12 | 171357 | 187568
14 | 41:40.69 | 3:11.12 | 187569 | 201905
15 | 44:52.06 | 2:30.39 | 201906 | 213194
16 | 47:22.45 | 2:48.48 | 213195 | 225842
17 | 50:11.18 | 2:49.38 | 225843 | 238555
18 | 53:00.56 | 3:04.23 | 238556 | 252378
19 | 56:05.04 | 2:47.30 | 252379 | 264933
20 | 58:52.34 | 3:16.20 | 264934 | 279653
21 | 62:08.54 | 3:35.14 | 279654 | 295792
22 | 65:43.68 | 2:45.67 | 295793 | 308234
23 | 68:29.60 | 3:11.62 | 308235 | 322621
24 | 71:41.47 | 3:15.24 | 322622 | 337270

Range status and errors

Selected range

Filename H:MUSICCOLLECTIONBob DylanBootleg Series2013 The Bootleg Series Vol10 Another Self Portrait (1969-1971) Deluxe EditionBob Dylan – Another Self Portrait (1969-1971) CD 4.wav

Peak level 97.6 %
Range quality 99.9 %
Test CRC BBD081C6
Copy CRC BBD081C6
Copy OK

No errors occurred

AccurateRip summary

Track 1 cannot be verified as accurate (confidence 3) [6A9D9A2F], AccurateRip returned [DA6F108C]
Track 2 cannot be verified as accurate (confidence 3) [06DF781B], AccurateRip returned [C6AA36C8]
Track 3 cannot be verified as accurate (confidence 3) [6CC5928F], AccurateRip returned [614E3EEB]
Track 4 cannot be verified as accurate (confidence 3) [103FA50D], AccurateRip returned [3150F45E]
Track 5 cannot be verified as accurate (confidence 3) [55A8CCEC], AccurateRip returned [417DA26B]
Track 6 cannot be verified as accurate (confidence 3) [706C3A29], AccurateRip returned [19BA3395]
Track 7 cannot be verified as accurate (confidence 3) [4ED8A639], AccurateRip returned [7B51ECBA]
Track 8 cannot be verified as accurate (confidence 3) [D73E15DD], AccurateRip returned [6FC55F5F]
Track 9 cannot be verified as accurate (confidence 3) [4B24E9F9], AccurateRip returned [E582B177]
Track 10 cannot be verified as accurate (confidence 3) [739BC748], AccurateRip returned [1110E940]
Track 11 cannot be verified as accurate (confidence 3) [D6466FD2], AccurateRip returned [EC081B8B]
Track 12 cannot be verified as accurate (confidence 3) [F7FB62FD], AccurateRip returned [B58705A6]
Track 13 cannot be verified as accurate (confidence 3) [6E5DF58C], AccurateRip returned [5C671B7A]
Track 14 cannot be verified as accurate (confidence 3) [6954BDD2], AccurateRip returned [BD14AEAF]
Track 15 cannot be verified as accurate (confidence 3) [BA1DE53D], AccurateRip returned [5C1D33AB]
Track 16 cannot be verified as accurate (confidence 3) [355A580D], AccurateRip returned [6CBB0B82]
Track 17 cannot be verified as accurate (confidence 3) [F3C9748B], AccurateRip returned [03D3AF48]
Track 18 cannot be verified as accurate (confidence 3) [E228AEC1], AccurateRip returned [838E4170]
Track 19 cannot be verified as accurate (confidence 3) [ED87CB3B], AccurateRip returned [074D0AB2]
Track 20 cannot be verified as accurate (confidence 3) [6E87DA40], AccurateRip returned [24BF1E4F]
Track 21 cannot be verified as accurate (confidence 3) [BD75777A], AccurateRip returned [438D0BA3]
Track 22 cannot be verified as accurate (confidence 3) [4023B266], AccurateRip returned [4756A337]
Track 23 cannot be verified as accurate (confidence 3) [8A68A163], AccurateRip returned [EACE2D6E]
Track 24 cannot be verified as accurate (confidence 3) [7E8C95E1], AccurateRip returned [6B3614C6]

No tracks could be verified as accurate
You may have a different pressing from the one(s) in the database

End of status report

––––-

All thanks go to snakesharmer

Bob Dylan in my Blog

DownloadBob Dylan: Bootleg Series Vol. 1-10 (1991 – 2013):

Bob Dylan: Bootleg Series Vol. 1-10 (1991 – 2013) Re-up Download, Warez, DDL, Free, Full Album, Torrent, Legal.

Download