Bob Dorough – Bob Dorough Trio & Special Guests Live at the Deer Head Inn (2017)

Download
Bob Dorough - Bob Dorough Trio & Special Guests Live at the Deer Head Inn (2017)

Bob Dorough – Bob Dorough Trio & Special Guests Live at the Deer Head Inn (2017)
EAC Rip | FLAC (Tracks) +cue, log, m3u – 292 MB | MP3 CBR 320 kbps – 135 MB | 00:59:06
Jazz, Jazz Vocals | Label: Deer Head Records

Although neglected and underexposed most of his life, Bob Dorough is an adventurous, risk-taking master of vocalese (the process of writing and singing lyrics to instrumental jazz solos) and scat singing who has directly or indirectly influenced Mark Murphy, Michael Franks, Mose Allison, and Kurt Elling. The Arkansas native started out on piano in the 1940s, then took up singing in the early ’50s (when he played for boxer Sugar Ray Robinson, an entertainer at the time). From 1954-1955, Dorough lived in Paris, where he recorded with singer Blossom Dearie. The improviser launched his own recording career when he signed with Bethlehem in 1955 and recorded the excellent Devil May Care, which introduced the defiant title song and lyrics to Charlie Parker’s "Yardbird Suite." But sadly, he recorded only sporadically after that. In 1962, Dorough co-wrote "Comin’ Home Baby" (a hit for Mel Tormé) with Ben Tucker, and in 1966, he recorded his second album, Just About Everything, for Focus. In the early ’70s, he began writing and directing the series of educational children’s TV programs, Schoolhouse Rock. Though instructional material became his bread and butter, Dorough recorded obscure jazz dates for 52 Rue East, Orange Blue, Pinnacle, Boomdido, Laissez-Faire, and other tiny labels in the 1970s and 1980s. In 1997, a 73-year-old Dorough received some long-overdue attention from a major label when the Capitol-distributed Blue Note released Right on My Way Home. Too Much Coffee Man followed in the spring of 2000. His Sunday brunch residency at New York’s Iridium club culminated in 2004’s live offering Sunday at Iridium and, at a sprightly 82 years of age, Dorough traveled to England for a series of live dates. The tour culminated in a recording session that spawned the charming Small Day Tomorrow album in 2006.

TRACKLIST

01. Announcement
02. The Touch of Your Lips (Live)
03. Flamingo (Live)
04. Learnin’ the Blues (Live)
05. Casanova’s Lament (Live)
06. Wily Wily Woman (Live)
07. Alfie (Live)
08. It’s Bound to End in Tears (Live)
09. The Sweetest Sounds (Live)
10. Summer Solstice (Live)
11. Devil May Care (Live)

EAC
Exact Audio Copy V1.3 from 2. September 2016

EAC extraction logfile from 9. July 2017, 10:51

Bob Dorough / Bob Dorough Trio & Special Guests Live at the Deer Head Inn

Used drive : PLDS DVD-RW DS8A9SH Adapter: 1 ID: 0

Read mode : Secure
Utilize accurate stream : Yes
Defeat audio cache : Yes
Make use of C2 pointers : No

Read offset correction : 6
Overread into Lead-In and Lead-Out : No
Fill up missing offset samples with silence : Yes
Delete leading and trailing silent blocks : No
Null samples used in CRC calculations : Yes
Used interface : Native Win32 interface for Win NT & 2000
Gap handling : Appended to previous track

Used output format : User Defined Encoder
Selected bitrate : 128 kBit/s
Quality : High
Add ID3 tag : No
Command line compressor : C:Program Files (x86)Exact Audio CopyFlacflac.exe
Additional command line options : -8 -V -T "ARTIST=%artist%" -T "TITLE=%title%" -T "ALBUM=%albumtitle%" -T "DATE=%year%" -T "TRACKNUMBER=%tracknr%" -T "GENRE=%genre%" -T "PERFORMER=%albuminterpret%" -T "COMPOSER=%composer%" %haslyrics%–tag-from-file=LYRICS="%lyricsfile%"%haslyrics% -T "ALBUMARTIST=%albumartist%" -T "DISCNUMBER=%cdnumber%" -T "TOTALDISCS=%totalcds%" -T "TOTALTRACKS=%numtracks%" -T "COMMENT=%comment%" %source% -o %dest%

TOC of the extracted CD

Track | Start | Length | Start sector | End sector
––––––––––––––––––––––––––––-
1 | 0:00.00 | 0:17.73 | 0 | 1347
2 | 0:17.73 | 5:58.32 | 1348 | 28229
3 | 6:16.30 | 7:50.04 | 28230 | 63483
4 | 14:06.34 | 5:44.72 | 63484 | 89355
5 | 19:51.31 | 4:47.47 | 89356 | 110927
6 | 24:39.03 | 5:48.61 | 110928 | 137088
7 | 30:27.64 | 2:59.66 | 137089 | 150579
8 | 33:27.55 | 6:28.04 | 150580 | 179683
9 | 39:55.59 | 8:07.24 | 179684 | 216232
10 | 48:03.08 | 5:38.69 | 216233 | 241651
11 | 53:42.02 | 5:30.49 | 241652 | 266450

Track 1

Filename C:#EAC Rips1 Announcement.wav

Pre-gap length 0:00:02.00

Peak level 72.5 %
Extraction speed 0.6 X
Track quality 100.0 %
Test CRC BF47D3B8
Copy CRC BF47D3B8
Track not present in AccurateRip database
Copy OK

Track 2

Filename C:#EAC Rips2 The Touch Of Your Lips.wav

Peak level 100.0 %
Extraction speed 2.0 X
Track quality 100.0 %
Test CRC C3A02815
Copy CRC C3A02815
Track not present in AccurateRip database
Copy OK

Track 3

Filename C:#EAC Rips3 Flamingo.wav

Peak level 84.8 %
Extraction speed 2.4 X
Track quality 100.0 %
Test CRC 6A8FCF03
Copy CRC 6A8FCF03
Track not present in AccurateRip database
Copy OK

Track 4

Filename C:#EAC Rips4 Learnin’ The Blues.wav

Peak level 100.0 %
Extraction speed 2.2 X
Track quality 99.9 %
Test CRC 1A1D580B
Copy CRC 1A1D580B
Track not present in AccurateRip database
Copy OK

Track 5

Filename C:#EAC Rips5 Casanova’s Lament.wav

Peak level 100.0 %
Extraction speed 2.7 X
Track quality 100.0 %
Test CRC B4C43823
Copy CRC B4C43823
Track not present in AccurateRip database
Copy OK

Track 6

Filename C:#EAC Rips6 Wily Wily Woman.wav

Peak level 100.0 %
Extraction speed 3.0 X
Track quality 100.0 %
Test CRC 5ED50813
Copy CRC 5ED50813
Track not present in AccurateRip database
Copy OK

Track 7

Filename C:#EAC Rips7 Alfie.wav

Peak level 100.0 %
Extraction speed 2.8 X
Track quality 100.0 %
Test CRC 3BE8F76C
Copy CRC 3BE8F76C
Track not present in AccurateRip database
Copy OK

Track 8

Filename C:#EAC Rips8 It’s Bound To End In Tears.wav

Peak level 100.0 %
Extraction speed 3.2 X
Track quality 100.0 %
Test CRC F3D5B785
Copy CRC F3D5B785
Track not present in AccurateRip database
Copy OK

Track 9

Filename C:#EAC Rips9 The Sweetest Sounds.wav

Peak level 100.0 %
Extraction speed 3.5 X
Track quality 100.0 %
Test CRC 61CE1BE8
Copy CRC 61CE1BE8
Track not present in AccurateRip database
Copy OK

Track 10

Filename C:#EAC Rips10 Summer Solstice.wav

Peak level 100.0 %
Extraction speed 3.6 X
Track quality 100.0 %
Test CRC 7C8AB910
Copy CRC 7C8AB910
Track not present in AccurateRip database
Copy OK

Track 11

Filename C:#EAC Rips11 Devil May Care.wav

Peak level 100.0 %
Extraction speed 3.1 X
Track quality 99.9 %
Test CRC EAAA520C
Copy CRC EAAA520C
Track not present in AccurateRip database
Copy OK

None of the tracks are present in the AccurateRip database

No errors occurred

End of status report

–– CUETools DB Plugin V2.1.6

[CTDB TOCID: 1XrFUNe4PuBBru4EaS_.E8zbICA-] disk not present in database
Submit result: The operation has timed out

==== Log checksum 100E4E710A784F41B231E0121599C4DB305E67B52C4DCE9EB23930042F45B2B9 ====

All thanks go to the original releaser

Bob Dorough – Bob Dorough Trio & Special Guests Live at the Deer Head Inn (2017) Download, Warez, DDL, Free, Full Album, Torrent, Legal.

Download