Bob Brookmeyer – Back Again (1978) {Gazell GJCD1015 rel 1990}

Download
Bob Brookmeyer - Back Again (1978) {Gazell GJCD1015 rel 1990}

Bob Brookmeyer – Back Again (1978) {Gazell GJCD1015 rel 1990}
EAC rip (secure mode) | FLAC (tracks)+CUE+LOG -> 235 Mb | MP3 @320 -> 100 Mb
Full Artwork @ 300 dpi (jpg) -> 8 Mb | 5% repair rar
© 1978, 1990 Gazell / Sonet | GJCD1015
Jazz / Cool / Post Bop / West Coast Jazz / Trombone

This session was valve trombonist Bob Brookmeyer’s first jazz date in 13 years after a period writing for the studios and then away from music altogether. Brookmeyer, who is featured in a quintet with cornetist Thad Jones, pianist Jimmy Rowles, bassist George Mraz and drummer Mel Lewis, proves to still be in prime form playing in an unchanged style. Other than the leader’s uptempo blues "In a Rotten Mood" and a Latin piece ("Carib"), the quintet sticks to veteran standards. Highlights include "Sweet and Lovely," "Caravan" and "You’d Be So Nice to Come Home To."

Personnel:
Bob Brookmeyer – valve trombone
Thad Jones – cornet, flugelhorn
Jimmy Rowles – piano
George Mraz – bass
Mel Lewis – drums

tracklist:
01 – Sweet And Lovely
02 – Carib
03 – Caravan
04 – You’d Be So Nice To Come Home To
05 – Willow Weep For Me
06 – I Love You
07 – In A Rotten Mood

EAC log
Exact Audio Copy V1.0 beta 3 from 29. August 2011

EAC extraction logfile from 31. January 2015, 9:08

Bob Brookmeyer / Back Again

Used drive : SONY DVD RW DRU-810A Adapter: 1 ID: 0

Read mode : Secure
Utilize accurate stream : Yes
Defeat audio cache : Yes
Make use of C2 pointers : No

Read offset correction : 618
Overread into Lead-In and Lead-Out : No
Fill up missing offset samples with silence : Yes
Delete leading and trailing silent blocks : No
Null samples used in CRC calculations : Yes
Used interface : Native Win32 interface for Win NT & 2000
Gap handling : Appended to previous track

Used output format : User Defined Encoder
Selected bitrate : 128 kBit/s
Quality : High
Add ID3 tag : No
Command line compressor : C:Program Files (x86)Exact Audio CopyFlacflac.exe
Additional command line options : -8 -V -T "ARTIST=%artist%" -T "TITLE=%title%" -T "ALBUM=%albumtitle%" -T "DATE=%year%" -T "TRACKNUMBER=%tracknr%" -T "TOTALTRACKS=%numtracks%" -T "GENRE=%genre%" -T "ALBUMARTIST=%albumartist%" -T "ALBUM ARTIST=%albumartist%" -T "COMMENT=EAC Secure Mode, Test & Copy, AccurateRip, FLAC -8" %source%

TOC of the extracted CD

Track | Start | Length | Start sector | End sector
––––––––––––––––––––––––––––-
1 | 0:00.00 | 8:30.37 | 0 | 38286
2 | 8:30.37 | 4:07.15 | 38287 | 56826
3 | 12:37.52 | 7:37.53 | 56827 | 91154
4 | 20:15.30 | 6:49.67 | 91155 | 121896
5 | 27:05.22 | 3:45.23 | 121897 | 138794
6 | 30:50.45 | 5:58.30 | 138795 | 165674
7 | 36:49.00 | 5:55.00 | 165675 | 192299

Track 1

Filename F:New RipsBob Brookmeyer – Back Again (1978) [FLAC]1 – Sweet And Lovely.wav

Pre-gap length 0:00:02.00

Peak level 81.2 %
Extraction speed 5.0 X
Track quality 100.0 %
Test CRC C32A61FC
Copy CRC C32A61FC
Track not present in AccurateRip database
Copy OK

Track 2

Filename F:New RipsBob Brookmeyer – Back Again (1978) [FLAC]2 – Carib.wav

Pre-gap length 0:00:03.02

Peak level 93.2 %
Extraction speed 5.3 X
Track quality 100.0 %
Test CRC 8FA84EC6
Copy CRC 8FA84EC6
Track not present in AccurateRip database
Copy OK

Track 3

Filename F:New RipsBob Brookmeyer – Back Again (1978) [FLAC]3 – Caravan.wav

Pre-gap length 0:00:05.35

Peak level 70.0 %
Extraction speed 6.3 X
Track quality 100.0 %
Test CRC B0A512BD
Copy CRC B0A512BD
Track not present in AccurateRip database
Copy OK

Track 4

Filename F:New RipsBob Brookmeyer – Back Again (1978) [FLAC]4 – You’d Be So Nice To Come Home To.wav

Pre-gap length 0:00:03.33

Peak level 83.0 %
Extraction speed 6.8 X
Track quality 100.0 %
Test CRC 87201050
Copy CRC 87201050
Track not present in AccurateRip database
Copy OK

Track 5

Filename F:New RipsBob Brookmeyer – Back Again (1978) [FLAC]5 – Willow Weep For Me.wav

Pre-gap length 0:00:03.57

Peak level 64.2 %
Extraction speed 6.8 X
Track quality 100.0 %
Test CRC FFBF82B0
Copy CRC FFBF82B0
Track not present in AccurateRip database
Copy OK

Track 6

Filename F:New RipsBob Brookmeyer – Back Again (1978) [FLAC]6 – I Love You.wav

Pre-gap length 0:00:04.68

Peak level 85.6 %
Extraction speed 7.5 X
Track quality 100.0 %
Test CRC A4099953
Copy CRC A4099953
Track not present in AccurateRip database
Copy OK

Track 7

Filename F:New RipsBob Brookmeyer – Back Again (1978) [FLAC]7 – In A Rotten Mood.wav

Pre-gap length 0:00:03.70

Peak level 72.9 %
Extraction speed 7.9 X
Track quality 100.0 %
Test CRC A1A2F431
Copy CRC A1A2F431
Track not present in AccurateRip database
Copy OK

None of the tracks are present in the AccurateRip database

No errors occurred

End of status report

–– CUETools DB Plugin V2.1.3

[CTDB TOCID: JqQNJPS2K8BvnaL.z2gCaWJH6xY-] disk not present in database, Submit result: JqQNJPS2K8BvnaL.z2gCaWJH6xY- has been uploaded

==== Log checksum 2833DFBDD9989CA27D5B1E0C88B3DE9C373852E86BF6FBD53B736E3AFF7096D4 ====

Bob Brookmeyer - Back Again (1978) {Gazell GJCD1015 rel 1990}

Bob Brookmeyer - Back Again (1978) {Gazell GJCD1015 rel 1990}
===

Bob Brookmeyer – Back Again (1978) {Gazell GJCD1015 rel 1990} Download, Warez, DDL, Free, Full Album, Torrent, Legal.

Download