Bo Diddley – Bo Diddley (1958) REPOST

Download
Bo Diddley - Bo Diddley (1958) REPOST

Bo Diddley – Bo Diddley (1958)
Rock & Roll | 1cd | EAC Rip | Flac + Cue + Log | covers
MCA, MCD 30488 | rel: 1993 | 280Mb

For anyone who wants to play rock & roll, real rock & roll, this is one of the few records that you really need. Along with Chuck Berry, Elvis, Little Richard, Jerry Lee Lewis, Muddy Waters, B.B. King, and a few select others, Bo Diddley was one of the founders of the form – and he did it like no other. Diddley had only one real style, that being the Bo Diddley beat: a syncopated, rhythmic drive, loaded with tremolo. There are 12 examples of it on this record, and that is about all you need. It’s one of those records that, after listening to just a few cuts, will find you tapping the beats on every available surface. Diddley’s guitar and vocals have a gruff feeling that recalls bluesmen such as Waters, yet he has his own style. Buttressed by drums, funky piano, and usually maracas, it’s absolutely infectious. This is one of the greatest rock sounds that you’re likely to hear, and it’s all on this one record, too. ~Allmusic

Track listing
01. Bo Diddley (2:27)
02. I’m A Man (2:44)
03. Bring It To Jerome (2:25)
04. Before You Accuse Me (3:04)
05. Hey, Bo Diddley (2:09)
06. Dearest Darling (2:48)
07. Hush Your Mouth (2:48)
08. Say Boss Man (2:29)
09. Diddley Daddy (2:26)
10. Diddy Wah Diddy (2:27)
11. Who Do You Love (2:27)
12. Pretty Thing (2:43)
13. We’re Gonna Get Married (2:29)
14. You Ain’t Bad (2:51)
15. Background To A Music (3:44)
16. Heart-O-Matic Love (2:45)
17. Bo Meets The Monster (3:05)
18. Pills (2:48)
19. You Can’t Judge A Book By Its Cover (3:12)
20. Africa Speaks (2:35)

eac log:
Exact Audio Copy V1.0 beta 2 from 29. April 2011

EAC extraction logfile from 30. October 2011, 10:50

Bo Diddley / Bo Diddley

Used drive : _NEC DVD_RW ND-3550A Adapter: 1 ID: 0

Read mode : Secure
Utilize accurate stream : Yes
Defeat audio cache : Yes
Make use of C2 pointers : No

Read offset correction : 48
Overread into Lead-In and Lead-Out : No
Fill up missing offset samples with silence : Yes
Delete leading and trailing silent blocks : No
Null samples used in CRC calculations : Yes
Used interface : Native Win32 interface for Win NT & 2000

Used output format : User Defined Encoder
Selected bitrate : 768 kBit/s
Quality : High
Add ID3 tag : No
Command line compressor : C:Program FilesExact Audio CopyFLACFLAC.EXE
Additional command line options : -6 -V -T "ARTIST=%artist%" -T "TITLE=%title%" -T "ALBUM=%albumtitle%" -T "DATE=%year%" -T "TRACKNUMBER=%tracknr%" -T "GENRE=%genre%" -T "COMMENT=%comment%" -T "BAND=%albuminterpret%" -T "COMPOSER=%composer%" %haslyrics%–ta

TOC of the extracted CD

Track | Start | Length | Start sector | End sector
––––––––––––––––––––––––––––-
1 | 0:00.32 | 2:28.23 | 32 | 11154
2 | 2:28.55 | 2:46.20 | 11155 | 23624
3 | 5:15.00 | 2:27.50 | 23625 | 34699
4 | 7:42.50 | 3:05.55 | 34700 | 48629
5 | 10:48.30 | 2:11.50 | 48630 | 58504
6 | 13:00.05 | 2:50.25 | 58505 | 71279
7 | 15:50.30 | 2:50.05 | 71280 | 84034
8 | 18:40.35 | 2:31.17 | 84035 | 95376
9 | 21:11.52 | 2:28.33 | 95377 | 106509
10 | 23:40.10 | 2:29.52 | 106510 | 117736
11 | 26:09.62 | 2:29.08 | 117737 | 128919
12 | 28:38.70 | 2:45.55 | 128920 | 141349
13 | 31:24.50 | 2:31.37 | 141350 | 152711
14 | 33:56.12 | 2:52.38 | 152712 | 165649
15 | 36:48.50 | 3:46.27 | 165650 | 182626
16 | 40:35.02 | 2:47.38 | 182627 | 195189
17 | 43:22.40 | 3:06.55 | 195190 | 209194
18 | 46:29.20 | 2:50.10 | 209195 | 221954
19 | 49:19.30 | 3:14.17 | 221955 | 236521
20 | 52:33.47 | 2:35.60 | 236522 | 248206

Range status and errors

Selected range

Filename C:FINISHBo Diddley – Bo Diddley (1958)Bo Diddley – Bo Diddley.wav

Peak level 99.6 %
Extraction speed 4.8 X
Range quality 100.0 %
Test CRC 40085506
Copy CRC 40085506
Copy OK

No errors occurred

AccurateRip summary

Track 1 accurately ripped (confidence 1) [91EF443C] (AR v1)
Track 2 accurately ripped (confidence 1) [1FA46EEC] (AR v1)
Track 3 accurately ripped (confidence 1) [37C0830F] (AR v1)
Track 4 accurately ripped (confidence 1) [8AAF4D1C] (AR v1)
Track 5 accurately ripped (confidence 1) [BAA29F8C] (AR v1)
Track 6 accurately ripped (confidence 1) [654BDFBF] (AR v1)
Track 7 accurately ripped (confidence 1) [53813D8A] (AR v1)
Track 8 accurately ripped (confidence 1) [9FA027E9] (AR v1)
Track 9 accurately ripped (confidence 1) [3A28485D] (AR v1)
Track 10 accurately ripped (confidence 1) [13553A60] (AR v1)
Track 11 accurately ripped (confidence 1) [FAF5BD75] (AR v1)
Track 12 accurately ripped (confidence 1) [0F2CB41A] (AR v1)
Track 13 accurately ripped (confidence 1) [7CAC5DA0] (AR v1)
Track 14 accurately ripped (confidence 1) [6CD29D82] (AR v1)
Track 15 accurately ripped (confidence 1) [3C129E02] (AR v1)
Track 16 accurately ripped (confidence 1) [C9542C29] (AR v1)
Track 17 accurately ripped (confidence 1) [EBFB3DCE] (AR v1)
Track 18 accurately ripped (confidence 1) [DA200889] (AR v1)
Track 19 accurately ripped (confidence 1) [5C784573] (AR v1)
Track 20 accurately ripped (confidence 1) [6E4D9D72] (AR v1)

All tracks accurately ripped

End of status report

==== Log checksum D592DC1D4D905514FC45318EE15F660403672C9C97FBFB60D9E07331445C50B4 ====

cuetools report:
[CUETools log; Date: 2017. 02. 12. 21:37:34; Version: 2.1.6]
Pregap length 00:00:32.
[CTDB TOCID: TEWZewek23ZsQ08BWy5DI79oYNc-] found.
Track | CTDB Status
1 | (6/6) Accurately ripped
2 | (6/6) Accurately ripped
3 | (6/6) Accurately ripped
4 | (6/6) Accurately ripped
5 | (6/6) Accurately ripped
6 | (6/6) Accurately ripped
7 | (6/6) Accurately ripped
8 | (6/6) Accurately ripped
9 | (6/6) Accurately ripped
10 | (6/6) Accurately ripped
11 | (6/6) Accurately ripped
12 | (6/6) Accurately ripped
13 | (6/6) Accurately ripped
14 | (6/6) Accurately ripped
15 | (6/6) Accurately ripped
16 | (6/6) Accurately ripped
17 | (6/6) Accurately ripped
18 | (6/6) Accurately ripped
19 | (6/6) Accurately ripped
20 | (6/6) Accurately ripped
[AccurateRip ID: 0026aa1a-023a82f9-f90ced14] found.
Track [ CRC | V2 ] Status
01 [91ef443c|5003713b] (2+5/7) Accurately ripped
02 [1fa46eec|0963bc3f] (2+5/7) Accurately ripped
03 [37c0830f|5655b0ce] (2+5/7) Accurately ripped
04 [8aaf4d1c|7dc67b45] (2+5/7) Accurately ripped
05 [baa29f8c|c5a8e5f3] (2+5/7) Accurately ripped
06 [654bdfbf|ec3c4576] (2+5/7) Accurately ripped
07 [53813d8a|8060b814] (2+5/7) Accurately ripped
08 [9fa027e9|712aa213] (2+5/7) Accurately ripped
09 [3a28485d|45a8d9cd] (2+5/7) Accurately ripped
10 [13553a60|9761d5c1] (2+5/7) Accurately ripped
11 [faf5bd75|0c516a31] (2+5/7) Accurately ripped
12 [0f2cb41a|c2db974a] (2+5/7) Accurately ripped
13 [7cac5da0|c8bfce2f] (2+5/7) Accurately ripped
14 [6cd29d82|5c8c8fb3] (2+5/7) Accurately ripped
15 [3c129e02|6ffc8a6c] (2+5/7) Accurately ripped
16 [c9542c29|a4cb266c] (2+5/7) Accurately ripped
17 [ebfb3dce|f04f5090] (2+5/7) Accurately ripped
18 [da200889|00cfdc37] (2+5/7) Accurately ripped
19 [5c784573|518ee9c2] (3+5/8) Accurately ripped
20 [6e4d9d72|4ab69433] (2+5/7) Accurately ripped

Track Peak [ CRC32 ] [W/O NULL] [ LOG ]
– 99,6 [40085506] [FCB967ED] CRC32
01 75,6 [ACFE7DCB] [A8A87F8D]
02 59,5 [D2374D5C] [CB4C8C39]
03 56,3 [39F28C64] [CE286594]
04 58,1 [D480ABC9] [30DEFA1C]
05 58,9 [45AA0979] [25A1915A]
06 78,9 [321879A3] [97561548]
07 93,1 [32613F7A] [91E39D0C]
08 52,1 [576C207C] [5109A5E5]
09 59,4 [EABA2282] [98714128]
10 62,4 [2A43D615] [BFC2FA54]
11 52,9 [DDA6F593] [173F1BAD]
12 60,3 [486EFFF0] [AE694E4B]
13 88,9 [FC4EC9A7] [DB021157]
14 78,5 [0C5FD017] [21E53810]
15 99,5 [74E86B5D] [9D1E40A1]
16 98,8 [C5943B51] [1DD00DB5]
17 92,3 [D389297F] [26C3C914]
18 99,6 [C96A857B] [7B9B2F81]
19 95,4 [9F18FA23] [B02FFC1D]
20 72,8 [F7890C1A] [18737015]

Thx to audelas

Bo Diddley – Bo Diddley (1958) REPOST Download, Warez, DDL, Free, Full Album, Torrent, Legal.

Download