Blops – Blops (1973)

Download
Blops - Blops (1973)

Blops – Blops (1973)
EAC | Flac(Image) + Cue + Log & MP3 CBR 320Kbps
2006 | Shadoks Music, 060 | ~ 268 or 102 Mb | Scans Included
Prog Folk, Psychedelic Rock

Musically the last album from Los Blops is also their most mature, skillfully combining flute with more modern instruments like the 5-string bajo bass, numerous keyboards and the usual varied Latin percussion. The band seems to have finally found a sound that both works for them and is sonically engaging for broader audiences.

This is heavier album than the previous two, thanks mostly to the expanded bass sound and heavier use of snare drums than the in the past. The album opens with the highlight track, a nearly thirteen- minute instrumental “Allegro Ma Non Troppo” in which the band appears to employ both acoustic and synthesized flute sounds, or at least they’ve found some way to introduce a heavy and sustained vibrato in the flute that isn’t typically heard from that instrument. There is more than a little psychedelic as well as fusion influence in the music, although the drum solo toward the end is rather gratuitous and actually takes away from the swaying, hypnotic mood just a bit.

The entire album consists of only five tracks, with three of them running more than eight minutes each. “Tartaleta de Frutillas” is nearly nine minutes long, and here the mood shifts to a bit heavier rock sound with plenty of organ and smooth electric guitar. Still there are no vocals to speak of, although a couple members of the band offer wordless vocal accompaniment at times. Once again the bass plays a pivotal role in grounding the music.

The band seems to decide to launch into a somewhat restrained guitar freak-out with the title track, but here again the strong role of the organ (and piano in this case) offer some variety and interesting interplay with the guitar. Unlike so much South American prog music of this period, the band seems to have decided to all but abandon heavy Latin percussion in favor of the snare drums and cymbals, especially on this track.

I’m not sure exactly what type of organ is employed on “Piromano”, but this, the piano and the electric guitar blend in a three-way interaction that is more focused and grounded than anything the band had produced to this point. It’s quite surprising to go back to their comparatively primitive debut and hear the remarkable transformation to highly complex, keyboard-driven music after starting out as what appeared it would be simply another acoustic, vocal group. Eduardo Gatti is the star here with his electric guitar work that covers mildly folk, psych, folk and conventional rock territory, all in one composition.

I could have done without the spoken-word passages on the closing track “Sandokan”, but this is also the only song that features any vocals to speak of, and the sung parts of those are as good as the band’s debut in which singing was more prevalent. This starts off like its going to be a slower, bluesy number but like “Locomotora” it morphs into another guitar/bass/organ psych jam midway, which drags on until the end of both the song and the album. Maybe ‘drags’ is a bad word since the energy and skill displayed are once again show great maturity in the band over the few years since they began recording.

This is quite unlike other Chilean bands of the era like El Congreso, Los Jaivas and Congregacion who all tended closer to more traditional folk music. So did Los Blops at first, but this last album shows the extent to which they had grown beyond that and embraced more of the sounds of European and North American psych and acid folk. Easily a three star record, and close to (but not quite) four. Well recommended to fans of El Congreso, Los Jaivas and Congregacion; but also those who enjoy acid folk bands and even groups like Jethro Tull. Los Blops are a pleasant progressive treat that are sadly not well-enough known outside their native country (but should be).

by ClemofNazareth, progarchives

Blops – Blops (1973):

Blops - Blops (1973)

Tracklist:

01. Alegro Ma Non Troppo (Pepe Roman) 12:42
02. Tarteleta De Frutillas (Eduardo Gatti) 08:46
03. Locomotora (Blops) 05:28
04. Piromano (Juan Carlos Villegas) 05:35
05. Sandokan (Juan Contreras) 08:53

Eduardo Gatti – guitar, vocals
Juan Contreras – flute, keyboards
Juan Carlos Villegas – electric piano
Juan Pablo Orrego – bajo, vocals
Sergio Bezard – drums, percusions

EAC Log
Exact Audio Copy V1.1 from 23. June 2015

EAC extraction logfile from 25. December 2016, 13:36

Blops / Blops

Used drive : TSSTcorpCDDVDW SH-224DB Adapter: 1 ID: 0

Read mode : Secure
Utilize accurate stream : Yes
Defeat audio cache : Yes
Make use of C2 pointers : No

Read offset correction : 6
Overread into Lead-In and Lead-Out : No
Fill up missing offset samples with silence : Yes
Delete leading and trailing silent blocks : No
Null samples used in CRC calculations : Yes
Used interface : Native Win32 interface for Win NT & 2000

Used output format : User Defined Encoder
Selected bitrate : 1024 kBit/s
Quality : High
Add ID3 tag : No
Command line compressor : C:Program Files (x86)Exact Audio Copywin64flac.exe
Additional command line options : -8 -V -T "ARTIST=%artist%" -T "TITLE=%title%" -T "ALBUM=%albumtitle%" -T "DATE=%year%" -T "TRACKNUMBER=%tracknr%" -T "GENRE=%genre%" -T "COMMENT=%comment%" %source% -o %dest%

TOC of the extracted CD

Track | Start | Length | Start sector | End sector
––––––––––––––––––––––––––––-
1 | 0:00.00 | 12:42.30 | 0 | 57179
2 | 12:42.30 | 8:45.61 | 57180 | 96615
3 | 21:28.16 | 5:27.69 | 96616 | 121209
4 | 26:56.10 | 5:35.13 | 121210 | 146347
5 | 32:31.23 | 8:52.60 | 146348 | 186307

Range status and errors

Selected range

Filename C:Sket4erBlops – Blops (1973) 2006Blops – Blops.wav

Peak level 99.9 %
Extraction speed 2.9 X
Range quality 100.0 %
Test CRC 93635820
Copy CRC 93635820
Copy OK

No errors occurred

AccurateRip summary

Track 1 not present in database
Track 2 not present in database
Track 3 not present in database
Track 4 not present in database
Track 5 not present in database

None of the tracks are present in the AccurateRip database

End of status report

–– CUETools DB Plugin V2.1.6

[CTDB TOCID: UNSi.VkW1U8JGg5YDZGjASXlkZM-] found
Submit result: already submitted
Track | CTDB Status
1 | (3/3) Accurately ripped
2 | (3/3) Accurately ripped
3 | (3/3) Accurately ripped
4 | (3/3) Accurately ripped
5 | (3/3) Accurately ripped

==== Log checksum CF73E23C2426A751227D5EB7136A16CA34FCCE57AC83C0299DAF4B2A15DEF73E ====

DR Log
foobar2000 1.2.9 / Dynamic Range Meter 1.1.1
log date: 2016-12-27 15:18:55

––––––––––––––––––––––––––––––––––––––––
Analyzed: Blops / Blops
––––––––––––––––––––––––––––––––––––––––

DR Peak RMS Duration Track
––––––––––––––––––––––––––––––––––––––––
DR10 0.00 dB -12.64 dB 12:42 01-Allegro Ma Non Troppo
DR8 0.00 dB -10.67 dB 8:46 02-Tartaleta De Frutillas
DR9 0.00 dB -11.38 dB 5:28 03-Locomotora
DR9 0.00 dB -10.27 dB 5:35 04-Piromano
DR10 -0.04 dB -12.88 dB 8:53 05-Sandokan
––––––––––––––––––––––––––––––––––––––––

Number of tracks: 5
Official DR value: DR9

Samplerate: 44100 Hz
Channels: 2
Bits per sample: 16
Bitrate: 847 kbps
Codec: FLAC

CUETools Log
[CUETools log; Date: 27.12.2016 15:18:55; Version: 2.1.4]
[CTDB TOCID: UNSi.VkW1U8JGg5YDZGjASXlkZM-] found.
Track | CTDB Status
1 | (3/3) Accurately ripped
2 | (3/3) Accurately ripped
3 | (3/3) Accurately ripped
4 | (3/3) Accurately ripped
5 | (3/3) Accurately ripped
[AccurateRip ID: 000945ae-0029c9cd-4109b405] disk not present in database.

Track Peak [ CRC32 ] [W/O NULL] [ LOG ]
– 99,9 [93635820] [BC89600D] CRC32
01 99,9 [BE49BCB9] [82C9C895]
02 99,9 [48CEBC98] [B950582A]
03 99,9 [18ADDB35] [C5282A68]
04 99,9 [AFBC7100] [6196331B]
05 99,5 [7171AFF8] [F501FA0D]

Blops - Blops (1973)

All thanks go to Sket4er

Blops in my Blog

Download Blops – Blops (1973):

Blops – Blops (1973) Download, Warez, DDL, Free, Full Album, Torrent, Legal.

Download