Blindstone – The Seventh Cycle Of Eternity (2016)

Download
Blindstone - The Seventh Cycle Of Eternity (2016)

Blindstone – The Seventh Cycle Of Eternity (2016)
EAC Rip | FLAC (Img) + Cue + Log ~ 414 Mb | MP3 CBR320 ~ 128 Mb
Scans (JPG, 600 dpi) ~ 40 Mb | RAR 5% Recovery
Heavy Blues Rock | Grooveyard Records #GYR151

Outstanding seventh disc by this awesome, blues-based, heavy guitar power trio from Denmark featuring Martin J. Andersen on guitar & vocals. Includes 11 excellent tracks that define supreme, powerful, bad-ass, killer, guitar rock excellence. Blindstone have achieved true musical greatness on "The Seventh Cycle Of Eternity" disc. An incredible, brain-damaging, ass-kickin’, guitar heavy tour de force of world-class proportions.

Martin J. Andersen is a true modern day guitar hero who is inspired by the authentic, "old-school" 70s heavy guitar rock legends that we worship and admire. Andersen embellishes this inspiration and creates his own brand of impressive original guitar riffage/mojo that lands rock solid on serious six string ground. The year is 2016 and M.J.A. represents plus speaks the guitar rock truth at the forefront & cutting edge of "Keeping the Rock alive" on the amazing "The Seventh Cycle Of Eternity" disc. Blindstone also features the low-down, heavy, bottom kool of Jesper Bunk on Bass, who also wrote several of the killer new "Seventh Cycle…" tracks and last but not least we find the debut of new band member Sigurd Jøhnk-Jensen kicking serious ass on the Drums. Both Bunk & Jøhnk-Jensen are excellent players who complete and nail down the rock solid to the core heavy Blindstone power trio groove.

"The Seventh Cycle Of Eternity" is an awesome heavy guitar power trio riff-rocker that is Highly recommended to fans of Jimi Hendrix, Robin Trower, Frank Marino, Eric Gales, King’s X, among others and to the good people who dig the previous killer Blindstone discs, the incredible Martin J. Andersen solo disc: "Six String Renegade" and all the other excellent discs that M.J.A. has landed on ala Mountain Of Power, Blindside Blues Band & Mike Onesko’s Guitar Army. All essential, brain-damaging, lead guitar dominated, heavy rockin’ discs that land down hard at the Grooveyard.

The band stay true to the killer Blindstone sound, however they explore new musical territory on various tracks, creating one of their heaviest discs to date. It’s time to raise the fist of the guitar rock child and let the music do the talking. Dig deep and smell the awesome Blindstone power trio riffage on the impressive "The Seventh Cycle Of Eternity" disc. An outstanding, classic heavy guitar rocker that stands the test of time & shines brightly into the outskirts of musical infinity.

***************

Virtuoso musicians, outstanding live performances and a groundbreaking sound: BLINDSTONE are the new generation of blues rock.

The Danish, guitar-driven blues rock trio is strongly influenced by 60’s/70’s era artists like Jimi Hendrix, Robin Trower, Frank Marino, Black Sabbath, Funkadelic and Mountain. Signed to American label Grooveyard Records, Blindstone have released 6 albums on the label so far.

Blindstone was formed in Thisted, Denmark, in 2002. Founding members, Andersen and Bunk, have worked with artists such as George Clinton, the late Billy Preston and Bobby Womack. The bands second album, “FREEDOM’S CALLING” was featured as album of the month by the noted american music-site THE CUTTING EDGE. On the following album ”RISE ABOVE”, danish guitar hero Poul Halberg and King’s X-guitarist Ty Tabor each made a guest appearance. Steven Reid of british rock magazine FIREWORKS, stated in his review that ”RISE ABOVE is a glorious, hard-hitting and memorable album that is packed with wonderful musicianship and cracking songs”.

In 2012, the band released two albums simultaneously: “Greetings From The Karma Factory”, and “Rare Tracks”. Both albums were universally praised by the music media.

Live, the band is a highly energetic Hard Rock / Blues Rock experience, characterized by a playful, jam-like approach to the material, with a firm focus on Andersen’s truly remarkable guitar playing and outrageous showmanship. The band’s most recent album, ”Live In Denmark”, which was released on March 27th, 2015, perfectly captures the essence of the band’s incendiary live performances.

In May, 2015, the band completed a successful 10-date tour of Spain, which saw the band firing on all cylinders, and performing better than ever!!

A new studio album, the band’s seventh overall, is slated for release in late 2016.

Blindstone - The Seventh Cycle Of Eternity (2016)

Official Website | Wiki | Discogs | All Music

***************

Blindstone - The Seventh Cycle Of Eternity (2016)

Track List:

01. Dead Man’s Blues [4:53]
02. Rolling [4:14]
03. Rebel In Black [4:48]
04. On My Way [4:29]
05. Looking Back [5:37]
06. By The Suns Of Warvan, You Shall Be Avenged [4:20]
07. Thunder From The North [4:25]
08. A Love Manifesto [5:06]
09. Stonesnake [4:07]
10. Once You See The Signs [5:31]
11. Power Of Soul [5:56]

EAC Log
Exact Audio Copy V1.0 beta 3 from 29. August 2011

Отчёт EAC об извлечении, выполненном 16. декабря 2016, 10:38

Blindstone / The Seventh Cycle Of Eternity

Дисковод: ATAPI iHAS424 A Adapter: 0 ID: 0

Режим чтения : Достоверность
Использование точного потока : Да
Отключение кэша аудио : Да
Использование указателей C2 : Нет

Коррекция смещения при чтении : 6
Способность читать области Lead-in и Lead-out : Нет
Заполнение пропущенных сэмплов тишиной : Да
Удаление блоков с тишиной в начале и конце : Нет
При вычислениях CRC использовались нулевые сэмплы : Да
Интерфейс : Установленный внешний ASPI-интерфейс

Выходной формат : Пользовательский кодировщик
Выбранный битрейт : 1024 kBit/s
Качество : Высокий
Добавление ID3-тега : Нет
Утилита сжатия : C:Program FilesExact Audio CopyFLACFLAC.EXE
Дополнительные параметры : -8 -V -T "ARTIST=%artist%" -T "ALBUM=%albumtitle%" -T "DATE=%year%" -T "GENRE=%genre%" -T "COMMENT=ripped by izia1956" %source%

TOC извлечённого CD

Трек | Старт | Длительность | Начальный сектор | Конечный сектор
––––––––––––––––––––––––––––––––––-
1 | 0:00.00 | 4:52.48 | 0 | 21947
2 | 4:52.48 | 4:13.48 | 21948 | 40970
3 | 9:06.21 | 4:47.48 | 40971 | 62543
4 | 13:53.69 | 4:28.48 | 62544 | 82691
5 | 18:22.42 | 5:36.48 | 82692 | 107939
6 | 23:59.15 | 4:19.48 | 107940 | 127412
7 | 28:18.63 | 4:24.48 | 127413 | 147260
8 | 32:43.36 | 5:05.48 | 147261 | 170183
9 | 37:49.09 | 4:06.48 | 170184 | 188681
10 | 41:55.57 | 5:30.48 | 188682 | 213479
11 | 47:26.30 | 5:55.48 | 213480 | 240152

Характеристики диапазона извлечения и сообщения об ошибках

Выбранный диапазон

Имя файла D:BitCometBlindstone(lossless)2016 – The Seventh Cycle Of EternityBlindstone – The Seventh Cycle Of Eternity.wav

Пиковый уровень 100.0 %
Скорость извлечения 5.9 X
Качество диапазона 100.0 %
CRC теста 42D2FE83
CRC копии 42D2FE83
Копирование… OK

Ошибок не произошло

AccurateRip: сводка

Трек 1 отсутствует в базе данных
Трек 2 отсутствует в базе данных
Трек 3 отсутствует в базе данных
Трек 4 отсутствует в базе данных
Трек 5 отсутствует в базе данных
Трек 6 отсутствует в базе данных
Трек 7 отсутствует в базе данных
Трек 8 отсутствует в базе данных
Трек 9 отсутствует в базе данных
Трек 10 отсутствует в базе данных
Трек 11 отсутствует в базе данных

Ни одного трека нет в базе AccurateRip

Конец отчёта

==== Контрольная сумма отчёта 2B84EE88830088399C036EB96119981EA3A8C5FD8EF89C0A7821AEC5F99AA17D ====

DR Log
foobar2000 1.2.6 / Dynamic Range Meter 1.1.1
log date: 2016-12-29 23:55:50

––––––––––––––––––––––––––––––––––––––––
Analyzed: Blindstone / The Seventh Cycle Of Eternity
––––––––––––––––––––––––––––––––––––––––

DR Peak RMS Duration Track
––––––––––––––––––––––––––––––––––––––––
DR6 -0.01 dB -7.13 dB 4:53 01-Dead Man’s Blues
DR6 -0.01 dB -6.78 dB 4:14 02-Rolling
DR5 -0.01 dB -6.11 dB 4:48 03-Rebel In Black
DR6 0.00 dB -6.49 dB 4:29 04-On My Way
DR7 -0.01 dB -7.89 dB 5:37 05-Looking Back
DR6 -0.01 dB -7.77 dB 4:20 06-By The Suns Of Warvan, You Shall Be Avenged
DR5 -0.01 dB -6.13 dB 4:25 07-Thunder From The North
DR6 -0.01 dB -6.93 dB 5:06 08-A Love Manifesto
DR7 -0.01 dB -7.37 dB 4:07 09-Stonesnake
DR6 -0.01 dB -7.07 dB 5:31 10-Once You See The Signs
DR6 -0.01 dB -6.48 dB 5:56 11-Power Of Soul
––––––––––––––––––––––––––––––––––––––––

Number of tracks: 11
Official DR value: DR6

Samplerate: 44100 Hz
Channels: 2
Bits per sample: 16
Bitrate: 1032 kbps
Codec: FLAC
================================================================================

CUETools Log
[CUETools log; Date: 29.12.2016 23:55:50; Version: 2.1.5]
[CTDB TOCID: bJM5_0Xed7zjsRpI0o.a31ZiJqE-] disk not present in database.
[AccurateRip ID: 00156984-00ba1b31-900c820b] disk not present in database.

Track Peak [ CRC32 ] [W/O NULL] [ LOG ]
– 100,0 [42D2FE83] [19E31CAD] CRC32
01 99,9 [DD0BF70F] [18B3EF4A]
02 99,9 [29C47EAC] [73829015]
03 99,9 [B5AC90A8] [BA281F4C]
04 100,0 [595AFB64] [EEDF45AF]
05 99,9 [80FD49D4] [E8273E2E]
06 99,9 [6E39219B] [E6F8548D]
07 99,9 [E7E105E0] [BC434332]
08 99,9 [891CFDB0] [85553E48]
09 99,9 [30327894] [20A89814]
10 99,9 [33703520] [00C46447]
11 99,9 [9148FFAF] [75209E3B]

Blindstone - The Seventh Cycle Of Eternity (2016)

All thanks go to izia1956

> Blindstone in my blog <

Download:

Blindstone – The Seventh Cycle Of Eternity (2016) Download, Warez, DDL, Free, Full Album, Torrent, Legal.

Download