Blair Crimmins & the Hookers – You Gotta Sell Something! (2017)

Download
Blair Crimmins & the Hookers - You Gotta Sell Something! (2017)

Blair Crimmins & the Hookers – You Gotta Sell Something!
EAC Rip | FLAC (tracks)+cue, log, m3u, front cover | 33:13 min | 217 MB
Label: New Rag Records ‎– NRR-0004 | Tracks: 10 | Rls.date: 2017
Dixieland, Ragtime, Jazz, Vocal

Blair Crimmins and The Hookers have a new batch of songs on their 3rd full length studio release. You Gotta Sell Something delivers more of their signature sound of supercharged Ragtime and Swing while also reaching into some new territory with Gospel and Jump Blues. Gypsy guitar, stride piano, rapid strumming banjo and a New Orleans style horn section keep the joint jumping while Crimmins sings in his clever lyrical style which is both humorous and sincere. Best Songwriter 2013 – If he caters to any genre it’s one that’s entirely his own, and that’s something a lot of guys with pens and guitars either don’t know how to do or don’t have the guts to do. (Creative Loafing Atlanta)

TRACKLIST
01. You Gotta Sell Something
02. Beautiful Thang
03. Top of the Class
04. I’m Gone
05. Hot Damn!
06. Wandering Joe
07. In the Neighborhood
08. You’re a Pain
09. Passed Around
10. Gypsy Lullaby

PERSONNEL
Blair Crimmins – vocals, banjo
Matt Wauchope – piano
Taylor Kennedy – sax, flute
Clark Hunt – trumpet
Daniel Wytanis – trombone
Justin Roberts – bass
Colin Agnew – drums

EAC Log
Exact Audio Copy V1.1 from 23. June 2015

EAC extraction logfile from 15. July 2017, 11:05

Blair Crimmins & the Hookers / You Gotta Sell Something!

Used drive : HL-DT-STDVDRAM GT50N Adapter: 1 ID: 0

Read mode : Secure
Utilize accurate stream : Yes
Defeat audio cache : Yes
Make use of C2 pointers : No

Read offset correction : 103
Overread into Lead-In and Lead-Out : No
Fill up missing offset samples with silence : Yes
Delete leading and trailing silent blocks : No
Null samples used in CRC calculations : Yes
Used interface : Native Win32 interface for Win NT & 2000
Gap handling : Appended to previous track

Used output format : User Defined Encoder
Selected bitrate : 1024 kBit/s
Quality : High
Add ID3 tag : No
Command line compressor : C:Program Files (x86)Exact Audio CopyFlacflac.exe
Additional command line options : -8 -e -V -T "ARTIST=%artist%" -T "TITLE=%title%" -T "ALBUM=%albumtitle%" -T "DATE=%year%" -T "TRACKNUMBER=%tracknr%" -T "GENRE=%genre%" -T "PERFORMER=%albuminterpret%" -T "COMPOSER=%composer%" %haslyrics%–tag-from-file=LYRICS="%lyricsfile%"%haslyrics% -T "ALBUMARTIST=%albumartist%" -T "DISCNUMBER=%cdnumber%" -T "TOTALDISCS=%totalcds%" -T "TOTALTRACKS=%numtracks%" -T "COMMENT=%comment%" %source% -o %dest%

TOC of the extracted CD

Track | Start | Length | Start sector | End sector
––––––––––––––––––––––––––––-
1 | 0:00.00 | 3:17.05 | 0 | 14779
2 | 3:17.05 | 3:06.40 | 14780 | 28769
3 | 6:23.45 | 3:12.10 | 28770 | 43179
4 | 9:35.55 | 3:22.66 | 43180 | 58395
5 | 12:58.46 | 2:29.04 | 58396 | 69574
6 | 15:27.50 | 4:04.51 | 69575 | 87925
7 | 19:32.26 | 3:08.72 | 87926 | 102097
8 | 22:41.23 | 3:04.21 | 102098 | 115918
9 | 25:45.44 | 5:17.14 | 115919 | 139707
10 | 31:02.58 | 2:14.71 | 139708 | 149828

Track 1

Filename C:Rips v2Blair Crimmins & the Hookers – You Gotta Sell Something! (FLAC)1 – You Gotta Sell Something.wav

Pre-gap length 0:00:02.00

Peak level 100.0 %
Extraction speed 1.2 X
Track quality 100.0 %
Test CRC 18968917
Copy CRC 18968917
Track not present in AccurateRip database
Copy OK

Track 2

Filename C:Rips v2Blair Crimmins & the Hookers – You Gotta Sell Something! (FLAC)2 – Beautiful Thang.wav

Pre-gap length 0:00:02.00

Peak level 100.0 %
Extraction speed 1.1 X
Track quality 99.9 %
Test CRC B134B84E
Copy CRC B134B84E
Track not present in AccurateRip database
Copy OK

Track 3

Filename C:Rips v2Blair Crimmins & the Hookers – You Gotta Sell Something! (FLAC)3 – Top of the Class.wav

Pre-gap length 0:00:02.00

Peak level 100.0 %
Extraction speed 1.4 X
Track quality 100.0 %
Test CRC 6D955E8C
Copy CRC 6D955E8C
Track not present in AccurateRip database
Copy OK

Track 4

Filename C:Rips v2Blair Crimmins & the Hookers – You Gotta Sell Something! (FLAC)4 – I’m Gone.wav

Pre-gap length 0:00:02.00

Peak level 100.0 %
Extraction speed 1.5 X
Track quality 100.0 %
Test CRC 46E30C48
Copy CRC 46E30C48
Track not present in AccurateRip database
Copy OK

Track 5

Filename C:Rips v2Blair Crimmins & the Hookers – You Gotta Sell Something! (FLAC)5 – Hot Damn!.wav

Pre-gap length 0:00:02.00

Peak level 100.0 %
Extraction speed 1.2 X
Track quality 99.9 %
Test CRC 3FA1B5D7
Copy CRC 3FA1B5D7
Track not present in AccurateRip database
Copy OK

Track 6

Filename C:Rips v2Blair Crimmins & the Hookers – You Gotta Sell Something! (FLAC)6 – Wandering Joe.wav

Pre-gap length 0:00:02.00

Peak level 100.0 %
Extraction speed 1.5 X
Track quality 99.9 %
Test CRC 5703EEBA
Copy CRC 5703EEBA
Track not present in AccurateRip database
Copy OK

Track 7

Filename C:Rips v2Blair Crimmins & the Hookers – You Gotta Sell Something! (FLAC)7 – In the Neighborhood.wav

Pre-gap length 0:00:02.00

Peak level 100.0 %
Extraction speed 1.7 X
Track quality 100.0 %
Test CRC F8AC6C6A
Copy CRC F8AC6C6A
Track not present in AccurateRip database
Copy OK

Track 8

Filename C:Rips v2Blair Crimmins & the Hookers – You Gotta Sell Something! (FLAC)8 – You’re a Pain.wav

Pre-gap length 0:00:02.00

Peak level 100.0 %
Extraction speed 1.5 X
Track quality 99.9 %
Test CRC DDE9DB85
Copy CRC DDE9DB85
Track not present in AccurateRip database
Copy OK

Track 9

Filename C:Rips v2Blair Crimmins & the Hookers – You Gotta Sell Something! (FLAC)9 – Passed Around.wav

Pre-gap length 0:00:02.00

Peak level 100.0 %
Extraction speed 2.0 X
Track quality 100.0 %
Test CRC F472D439
Copy CRC F472D439
Track not present in AccurateRip database
Copy OK

Track 10

Filename C:Rips v2Blair Crimmins & the Hookers – You Gotta Sell Something! (FLAC)10 – Gypsy Lullaby.wav

Pre-gap length 0:00:02.00

Peak level 84.0 %
Extraction speed 1.8 X
Track quality 100.0 %
Test CRC 6AF6F111
Copy CRC 6AF6F111
Track not present in AccurateRip database
Copy OK

None of the tracks are present in the AccurateRip database

No errors occurred

End of status report

–– CUETools DB Plugin V2.1.6

[CTDB TOCID: j2UG_k5AgVATNqAVN4z0R0hTD40-] disk not present in database
Submit result: j2UG_k5AgVATNqAVN4z0R0hTD40- has been uploaded

==== Log checksum 17B4E3E4A13C4A7DC1D9B1088DE5FD36089B31D531A4D0DBF0E06BB9E6CA5D14 ====

Thanks to the Original customer.

Blair Crimmins & the Hookers – You Gotta Sell Something! (2017) Download, Warez, DDL, Free, Full Album, Torrent, Legal.

Download