Black Sabbath – Collectors' Edition (1999) [3CD Box Set]

Download
Black Sabbath - Collectors' Edition (1999) [3CD Box Set]

Black Sabbath – Collectors’ Edition (1999)
EAC | Flac(Image) + Cue + Log & MP3 CBR 320Kbps
3CD | Trans World Entertainment | ~ 797 or 293 Mb | Scans(jpg) -> 73 Mb
Hard Rock / Classic Rock

~ Incl: Black Sabbath (Creative Sounds 6006-2); Sabbath Bloody Sabbath (Creative Sounds 6005-2); Paranoid (Creative Sounds 6007-2) ~

Black Sabbath - Collectors' Edition (1999) [3CD Box Set]

Black Sabbath at Wiki | Black Sabbath at Discogs | Black Sabbath at Allmusic | Black Sabbath HomePage

***********

Black Sabbath – Collectors’ Edition (1999):

Black Sabbath - Collectors' Edition (1999) [3CD Box Set]

Tracklist CD1 – Black Sabbath (Creative Sounds 6006-2):

01. Black Sabbath 6:18
02. The Wizard 4:24
03. Wasp / Behind The Wall Of Sleep / Bassically / N.I.B. 9:44
04. A Bit Of Finger / Sleeping Village / Warning 14:17
05. Wicked World 4:44

EAC Log
Exact Audio Copy V1.3 from 2. September 2016

EAC extraction logfile from 21. June 2017, 13:04

Black Sabbath / Black Sabbath (6006-2)

Used drive : hp DVDRAM GT80N Adapter: 1 ID: 0

Read mode : Secure
Utilize accurate stream : Yes
Defeat audio cache : Yes
Make use of C2 pointers : No

Read offset correction : 102
Overread into Lead-In and Lead-Out : No
Fill up missing offset samples with silence : Yes
Delete leading and trailing silent blocks : No
Null samples used in CRC calculations : Yes
Used interface : Native Win32 interface for Win NT & 2000

Used output format : User Defined Encoder
Selected bitrate : 1024 kBit/s
Quality : High
Add ID3 tag : No
Command line compressor : C:Program Files (x86)Exact Audio CopyFlacflac.exe
Additional command line options : -V -8 -T "Date=%year%" -T "Genre=%genre%" %source%

TOC of the extracted CD

Track | Start | Length | Start sector | End sector
––––––––––––––––––––––––––––-
1 | 0:00.00 | 6:17.53 | 0 | 28327
2 | 6:17.53 | 4:23.50 | 28328 | 48102
3 | 10:41.28 | 9:43.47 | 48103 | 91874
4 | 20:25.00 | 14:17.25 | 91875 | 156174
5 | 34:42.25 | 4:44.15 | 156175 | 177489

Range status and errors

Selected range

Filename H:dafnaplus1. Black SabbathBlack Sabbath – Black Sabbath (6006-2).wav

Peak level 100.0 %
Extraction speed 3.9 X
Range quality 100.0 %
Test CRC E8614A94
Copy CRC E8614A94
Copy OK

No errors occurred

AccurateRip summary

Track 1 cannot be verified as accurate (confidence 10) [C6413E0A], AccurateRip returned [03A4F413] (AR v2)
Track 2 cannot be verified as accurate (confidence 10) [157D7248], AccurateRip returned [FB87110F] (AR v2)
Track 3 cannot be verified as accurate (confidence 10) [556D6BD3], AccurateRip returned [FE67D115] (AR v2)
Track 4 cannot be verified as accurate (confidence 11) [DD61679A], AccurateRip returned [F647DCBC] (AR v2)
Track 5 accurately ripped (confidence 2) [EAA00424] (AR v2)

1 track(s) accurately ripped
4 track(s) could not be verified as accurate

Some tracks could not be verified as accurate

End of status report

–– CUETools DB Plugin V2.1.6

[CTDB TOCID: IMId12LJft_05sKqHOfAXK5Neyc-] found
Submit result: IMId12LJft_05sKqHOfAXK5Neyc- has been confirmed
Track | CTDB Status
1 | (39/40) Accurately ripped
2 | (40/40) Accurately ripped
3 | (39/40) Accurately ripped
4 | (38/40) Accurately ripped
5 | (19/40) Accurately ripped, or (18/40) differs in 16426 samples @04:43:42-04:43:69

==== Log checksum 24B88DD9918C496EF511899A6F33AFD16E7F012231F95FA50CB8D2738D540235 ====

DR Log
foobar2000 1.2.9 / Dynamic Range Meter 1.1.1
log date: 2017-07-09 20:32:23

––––––––––––––––––––––––––––––––––––––––
Analyzed: Black Sabbath / Black Sabbath (6006-2)
––––––––––––––––––––––––––––––––––––––––

DR Peak RMS Duration Track
––––––––––––––––––––––––––––––––––––––––
DR11 0.00 dB -14.41 dB 6:18 01-Black Sabbath
DR11 -0.93 dB -14.94 dB 4:24 02-The Wizard
DR11 -1.41 dB -14.00 dB 9:44 03-Wasp / Behind the Wall of Sleep / Bassically / N.I.B.
DR12 -0.69 dB -14.97 dB 14:17 04-A Bit Of Finger / Sleeping Village / Warning
DR11 -0.93 dB -14.69 dB 4:44 05-Wicked World
––––––––––––––––––––––––––––––––––––––––

Number of tracks: 5
Official DR value: DR11

Samplerate: 44100 Hz
Channels: 2
Bits per sample: 16
Bitrate: 908 kbps
Codec: FLAC
================================================================================

CUETools Log
[CUETools log; Date: 21.06.2017 15:32:43; Version: 2.1.5]
[CTDB TOCID: IMId12LJft_05sKqHOfAXK5Neyc-] found.
Track | CTDB Status
1 | (40/41) Accurately ripped
2 | (41/41) Accurately ripped
3 | (40/41) Accurately ripped
4 | (39/41) Accurately ripped
5 | (20/41) Accurately ripped, or (18/41) differs in 16426 samples @04:43:42-04:43:69
[AccurateRip ID: 0007a8d3-0024d6c9-3c093e05] found.
Track [ CRC | V2 ] Status
01 [bda3f841|c6413e0a] (00+00/50) No match
02 [e797c1de|157d7248] (00+00/51) No match
03 [92ce4853|556d6bd3] (00+00/49) No match
04 [41b9a248|dd61679a] (00+00/47) No match
05 [1f0265d7|eaa00424] (00+02/54) Accurately ripped
Offsetted by 141:
01 [1b092ba0] (03/50) Accurately ripped
02 [d4866ac8] (03/51) Accurately ripped
03 [cd06152c] (03/49) Accurately ripped
04 [d1c65124] (02/47) Accurately ripped
05 [01c2be02] (03/54) Accurately ripped
Offsetted by 664:
01 [dca2b026] (08/50) Accurately ripped
02 [c99b5652] (08/51) Accurately ripped
03 [24194f88] (08/49) Accurately ripped
04 [4deee809] (08/47) Accurately ripped
05 [4b17c501] (08/54) Accurately ripped
Offsetted by 1971:
01 [da42a89f] (03/50) Accurately ripped
02 [fc431930] (03/51) Accurately ripped
03 [fadbedb8] (03/49) Accurately ripped
04 [f6bbcf27] (03/47) Accurately ripped
05 [b300435b] (00/54) No match (V2 was not tested)
Offsetted by 2630:
01 [50801d06] (05/50) Accurately ripped
02 [a4952bd0] (05/51) Accurately ripped
03 [4064b27a] (05/49) Accurately ripped
04 [d0bcb8ae] (05/47) Accurately ripped
05 [0db3c61c] (00/54) No match (V2 was not tested)

Track Peak [ CRC32 ] [W/O NULL] [ LOG ]
– 100,0 [E8614A94] [6EFD5419] CRC32
01 100,0 [BDE6C45B] [92F2C8C2]
02 89,8 [C841DD52] [F91C1D4F]
03 85,0 [402D5173] [7F9A0908]
04 92,3 [F2CE3EAD] [2CF16540]
05 89,8 [9406E9B3] [1ED17FFA]

Black Sabbath - Collectors' Edition (1999) [3CD Box Set]

Tracklist CD2 – Sabbath Bloody Sabbath (Creative Sounds 6005-2):

01. Sabbath Bloody Sabbath 5:46
02. A National Acrobat 6:18
03. Fluff 4:12
04. Sabbra Cadabra 5:59
05. Killing Yourself To Live 5:41
06. Who Are You? 4:16
07. Spiral Architect 5:30
08. Looking For Today 5:01

EAC Log
Exact Audio Copy V1.3 from 2. September 2016

EAC extraction logfile from 21. June 2017, 15:28

Black Sabbath / Sabbath Bloody Sabbath (6005-2)

Used drive : hp DVDRAM GT80N Adapter: 1 ID: 0

Read mode : Secure
Utilize accurate stream : Yes
Defeat audio cache : Yes
Make use of C2 pointers : No

Read offset correction : 102
Overread into Lead-In and Lead-Out : No
Fill up missing offset samples with silence : Yes
Delete leading and trailing silent blocks : No
Null samples used in CRC calculations : Yes
Used interface : Native Win32 interface for Win NT & 2000

Used output format : User Defined Encoder
Selected bitrate : 1024 kBit/s
Quality : High
Add ID3 tag : No
Command line compressor : C:Program Files (x86)Exact Audio CopyFlacflac.exe
Additional command line options : -V -8 -T "Date=%year%" -T "Genre=%genre%" %source%

TOC of the extracted CD

Track | Start | Length | Start sector | End sector
––––––––––––––––––––––––––––-
1 | 0:00.00 | 5:46.32 | 0 | 25981
2 | 5:46.32 | 6:17.73 | 25982 | 54329
3 | 12:04.30 | 4:12.02 | 54330 | 73231
4 | 16:16.32 | 5:58.45 | 73232 | 100126
5 | 22:15.02 | 5:41.20 | 100127 | 125721
6 | 27:56.22 | 4:15.45 | 125722 | 144891
7 | 32:11.67 | 5:30.05 | 144892 | 169646
8 | 37:41.72 | 5:00.48 | 169647 | 192194

Range status and errors

Selected range

Filename H:dafnaplus2. Sabbath Bloody SabbathBlack Sabbath – Sabbath Bloody Sabbath (6005-2).wav

Peak level 85.4 %
Extraction speed 4.0 X
Range quality 100.0 %
Test CRC E109EDDF
Copy CRC E109EDDF
Copy OK

No errors occurred

AccurateRip summary

Track 1 cannot be verified as accurate (confidence 5) [73BDC741], AccurateRip returned [E9EA7EA4] (AR v2)
Track 2 cannot be verified as accurate (confidence 5) [F2E73A13], AccurateRip returned [32283DF7] (AR v2)
Track 3 cannot be verified as accurate (confidence 6) [C868F05F], AccurateRip returned [E0FAB96E] (AR v2)
Track 4 cannot be verified as accurate (confidence 3) [7D48A131], AccurateRip returned [9BE9A379] (AR v2)
Track 5 cannot be verified as accurate (confidence 5) [DDE63515], AccurateRip returned [3C3DF12D] (AR v2)
Track 6 cannot be verified as accurate (confidence 5) [07242012], AccurateRip returned [BAD2DC31] (AR v2)
Track 7 cannot be verified as accurate (confidence 5) [20D12B4D], AccurateRip returned [0ECF6358] (AR v2)
Track 8 cannot be verified as accurate (confidence 4) [BAAB8A3B], AccurateRip returned [5C5B5406] (AR v2)

No tracks could be verified as accurate
You may have a different pressing from the one(s) in the database

End of status report

–– CUETools DB Plugin V2.1.6

[CTDB TOCID: UoOeFPlHwt9bWKfQp7aPEUSVLug-] found
Submit result: already submitted
Track | CTDB Status
1 | (25/30) Accurately ripped
2 | (25/30) Accurately ripped
3 | (25/30) Accurately ripped
4 | ( 2/30) Accurately ripped, or (4/30) differs in 315 samples @05:43:11,05:43:26-05:43:27,05:43:40-05:43:41
5 | (23/30) Accurately ripped
6 | (25/30) Accurately ripped
7 | (24/30) Accurately ripped
8 | (12/30) Accurately ripped
If you are sure that your rip contains errors, you can use CUETools to repair it.

==== Log checksum 92D18D6E822E42ED4D190DC43B684DB8BA166807BF11AF63353ACD914CD160F0 ====

DR Log
foobar2000 1.2.9 / Dynamic Range Meter 1.1.1
log date: 2017-07-09 20:32:41

––––––––––––––––––––––––––––––––––––––––
Analyzed: Black Sabbath / Sabbath Bloody Sabbath (6005-2)
––––––––––––––––––––––––––––––––––––––––

DR Peak RMS Duration Track
––––––––––––––––––––––––––––––––––––––––
DR11 -1.75 dB -14.90 dB 5:46 01-Sabbath Bloody Sabbath
DR11 -1.47 dB -15.28 dB 6:18 02-A National Acrobat
DR12 -4.58 dB -19.57 dB 4:12 03-Fluff
DR11 -1.49 dB -15.28 dB 5:59 04-Sabbra Cadabra
DR9 -1.62 dB -12.77 dB 5:41 05-Killing Yourself To Live
DR11 -1.46 dB -14.79 dB 4:16 06-Who Are You?
DR11 -1.56 dB -15.65 dB 5:30 07-Spiral Architect
DR10 -1.37 dB -14.36 dB 5:01 08-Looking For Today
––––––––––––––––––––––––––––––––––––––––

Number of tracks: 8
Official DR value: DR11

Samplerate: 44100 Hz
Channels: 2
Bits per sample: 16
Bitrate: 867 kbps
Codec: FLAC
================================================================================

CUETools Log
[CUETools log; Date: 21.06.2017 15:33:09; Version: 2.1.5]
[CTDB TOCID: UoOeFPlHwt9bWKfQp7aPEUSVLug-] found.
Track | CTDB Status
1 | (25/30) Accurately ripped
2 | (25/30) Accurately ripped
3 | (25/30) Accurately ripped
4 | ( 2/30) Accurately ripped, or (4/30) differs in 315 samples @05:43:11,05:43:26-05:43:27,05:43:40-05:43:41
5 | (23/30) Accurately ripped
6 | (25/30) Accurately ripped
7 | (24/30) Accurately ripped
8 | (12/30) Accurately ripped
[AccurateRip ID: 000d856f-00597a59-790a0208] found.
Track [ CRC | V2 ] Status
01 [f6349ba2|73bdc741] (00+00/16) No match
02 [a7749664|f2e73a13] (00+00/17) No match
03 [91187ecb|c868f05f] (00+00/20) No match
04 [fb4f34b9|7d48a131] (00+00/11) No match
05 [146f6ab7|dde63515] (00+00/16) No match
06 [997e592b|07242012] (00+00/18) No match
07 [23fb795d|20d12b4d] (00+00/18) No match
08 [108e2372|baab8a3b] (00+00/15) No match
Offsetted by 15:
01 [48fd7160] (00/16) No match (V2 was not tested)
02 [dc1897b0] (00/17) No match (V2 was not tested)
03 [68758754] (00/20) No match (V2 was not tested)
04 [b60b3ebc] (00/11) No match (V2 was not tested)
05 [3b09806a] (00/16) No match (V2 was not tested)
06 [680c642a] (00/18) No match (V2 was not tested)
07 [5deb43cd] (00/18) No match (V2 was not tested)
08 [3453d0f7] (00/15) No match (V2 was not tested)
Offsetted by 664:
01 [96f70dc6] (04/16) Accurately ripped
02 [32283df7] (05/17) Accurately ripped
03 [e0fab96e] (06/20) Accurately ripped
04 [a3f3e29f] (00/11) No match (V2 was not tested)
05 [3c3df12d] (05/16) Accurately ripped
06 [bad2dc31] (05/18) Accurately ripped
07 [0ecf6358] (05/18) Accurately ripped
08 [b5e3c5df] (03/15) Accurately ripped
Offsetted by 2630:
01 [5de7e6ad] (00/16) No match (V2 was not tested)
02 [6b6823e0] (00/17) No match (V2 was not tested)
03 [bd00ec93] (00/20) No match (V2 was not tested)
04 [b22e00d3] (00/11) No match (V2 was not tested)
05 [165567f8] (00/16) No match (V2 was not tested)
06 [31839551] (00/18) No match (V2 was not tested)
07 [c91e8fad] (00/18) No match (V2 was not tested)
08 [e638e878] (00/15) No match (V2 was not tested)

Track Peak [ CRC32 ] [W/O NULL] [ LOG ]
– 85,4 [E109EDDF] [81B13AC8] CRC32
01 81,7 [B0C3F89F] [4448E94A]
02 84,3 [83CCDB20] [9DA0E402]
03 59,0 [1A7BC14E] [F5F4E102]
04 84,2 [85DEF89B] [551492C8]
05 82,9 [635FAB29] [2FE9680C]
06 84,5 [4DC45542] [B6F26800]
07 83,5 [02F064D6] [A612D1F6]
08 85,4 [E36465E9] [89F00C45]

Black Sabbath - Collectors' Edition (1999) [3CD Box Set]

Tracklist CD3 – Paranoid (Creative Sounds 6007-2):

01. War Pigs 7:57
02. Paranoid 2:50
03. Planet Caravan 4:30
04. Iron Man 5:56
05. Electric Funeral 4:52
06. Hand Of Doom 7:12
07. Jack The Stripper/Fairies Wear Boots 6:15
08. Rat Salad 2:28

EAC Log
Exact Audio Copy V1.3 from 2. September 2016

EAC extraction logfile from 21. June 2017, 14:55

Black Sabbath / Paranoid (6007-2)

Used drive : hp DVDRAM GT80N Adapter: 1 ID: 0

Read mode : Secure
Utilize accurate stream : Yes
Defeat audio cache : Yes
Make use of C2 pointers : No

Read offset correction : 102
Overread into Lead-In and Lead-Out : No
Fill up missing offset samples with silence : Yes
Delete leading and trailing silent blocks : No
Null samples used in CRC calculations : Yes
Used interface : Native Win32 interface for Win NT & 2000

Used output format : User Defined Encoder
Selected bitrate : 1024 kBit/s
Quality : High
Add ID3 tag : No
Command line compressor : C:Program Files (x86)Exact Audio CopyFlacflac.exe
Additional command line options : -V -8 -T "Date=%year%" -T "Genre=%genre%" %source%

TOC of the extracted CD

Track | Start | Length | Start sector | End sector
––––––––––––––––––––––––––––-
1 | 0:00.00 | 7:57.07 | 0 | 35781
2 | 7:57.07 | 2:50.30 | 35782 | 48561
3 | 10:47.37 | 4:30.23 | 48562 | 68834
4 | 15:17.60 | 5:56.27 | 68835 | 95561
5 | 21:14.12 | 4:51.58 | 95562 | 117444
6 | 26:05.70 | 7:11.55 | 117445 | 149824
7 | 33:17.50 | 6:14.67 | 149825 | 177941
8 | 39:32.42 | 2:28.30 | 177942 | 189071

Range status and errors

Selected range

Filename H:dafnaplus3. ParanoidBlack Sabbath – Paranoid (6007-2).wav

Peak level 100.0 %
Extraction speed 4.0 X
Range quality 100.0 %
Test CRC ACAD9D2A
Copy CRC ACAD9D2A
Copy OK

No errors occurred

AccurateRip summary

Track 1 accurately ripped (confidence 2) [5359CE9A] (AR v2)
Track 2 accurately ripped (confidence 2) [DE7E75A7] (AR v2)
Track 3 accurately ripped (confidence 2) [B3435829] (AR v2)
Track 4 accurately ripped (confidence 2) [EFDB303C] (AR v2)
Track 5 accurately ripped (confidence 2) [C283414D] (AR v2)
Track 6 accurately ripped (confidence 2) [32F3B66F] (AR v2)
Track 7 accurately ripped (confidence 2) [1CDC0295] (AR v2)
Track 8 accurately ripped (confidence 2) [0A30BD86] (AR v2)

All tracks accurately ripped

End of status report

–– CUETools DB Plugin V2.1.6

[CTDB TOCID: GSWmheRVF2aairPp9tt6RSpF3WQ-] found
Submit result: already submitted
Track | CTDB Status
1 | (46/57) Accurately ripped
2 | (51/57) Accurately ripped
3 | (52/57) Accurately ripped
4 | (49/57) Accurately ripped
5 | (50/57) Accurately ripped
6 | (51/57) Accurately ripped
7 | (52/57) Accurately ripped
8 | (49/57) Accurately ripped

==== Log checksum 90E7C9D9756207CEB172EF72338BE465A27D250BE45DDEC9AEF6962154F206CE ====

DR Log
foobar2000 1.2.9 / Dynamic Range Meter 1.1.1
log date: 2017-07-09 20:32:53

––––––––––––––––––––––––––––––––––––––––
Analyzed: Black Sabbath / Paranoid (6007-2)
––––––––––––––––––––––––––––––––––––––––

DR Peak RMS Duration Track
––––––––––––––––––––––––––––––––––––––––
DR14 0.00 dB -16.39 dB 7:57 01-War Pigs
DR14 0.00 dB -15.91 dB 2:50 02-Paranoid
DR16 -0.72 dB -20.39 dB 4:30 03-Planet Caravan
DR12 -0.60 dB -14.61 dB 5:56 04-Iron Man
DR12 0.00 dB -15.06 dB 4:52 05-Electric Funeral
DR13 0.00 dB -15.95 dB 7:12 06-Hand Of Doom
DR13 0.00 dB -14.87 dB 6:15 07-Jack The Stripper/Fairies Wear Boots
DR13 -2.15 dB -17.72 dB 2:28 08-Rat Salad
––––––––––––––––––––––––––––––––––––––––

Number of tracks: 8
Official DR value: DR13

Samplerate: 44100 Hz
Channels: 2
Bits per sample: 16
Bitrate: 839 kbps
Codec: FLAC
================================================================================

CUETools Log
[CUETools log; Date: 21.06.2017 15:33:31; Version: 2.1.5]
[CTDB TOCID: GSWmheRVF2aairPp9tt6RSpF3WQ-] found.
Track | CTDB Status
1 | (46/57) Accurately ripped
2 | (51/57) Accurately ripped
3 | (52/57) Accurately ripped
4 | (49/57) Accurately ripped
5 | (50/57) Accurately ripped
6 | (51/57) Accurately ripped
7 | (52/57) Accurately ripped
8 | (49/57) Accurately ripped
[AccurateRip ID: 000d7951-00593fc6-8b09d808] found.
Track [ CRC | V2 ] Status
01 [eb8b59d9|5359ce9a] (00+02/20) Accurately ripped
02 [d1c8a29f|de7e75a7] (02+02/22) Accurately ripped
03 [f475ce8e|b3435829] (02+02/22) Accurately ripped
04 [5858090b|efdb303c] (02+02/24) Accurately ripped
05 [cfa53c15|c283414d] (02+02/25) Accurately ripped
06 [bd7d6a27|32f3b66f] (02+02/23) Accurately ripped
07 [46d4ad69|1cdc0295] (02+02/25) Accurately ripped
08 [a11ad14c|0a30bd86] (02+02/23) Accurately ripped
Offsetted by -523:
01 [0b86016f] (05/20) Accurately ripped
02 [d6f6290b] (05/22) Accurately ripped
03 [41614f4a] (05/22) Accurately ripped
04 [2fb0423d] (06/24) Accurately ripped
05 [87cfab82] (07/25) Accurately ripped
06 [5d67b268] (06/23) Accurately ripped
07 [2fd573be] (07/25) Accurately ripped
08 [8698f08d] (04/23) Accurately ripped
Offsetted by 664:
01 [cb6a177b] (05/20) Accurately ripped
02 [05dd9040] (05/22) Accurately ripped
03 [0efd2f9b] (04/22) Accurately ripped
04 [d3ed0993] (04/24) Accurately ripped
05 [d683509d] (04/25) Accurately ripped
06 [6afe7506] (05/23) Accurately ripped
07 [a62cc246] (04/25) Accurately ripped
08 [29ee01e7] (05/23) Accurately ripped
Offsetted by 1219:
01 [28ea5a7b] (00/20) No match (V2 was not tested)
02 [30514dd4] (00/22) No match (V2 was not tested)
03 [9c01144e] (00/22) No match (V2 was not tested)
04 [13e552e3] (00/24) No match (V2 was not tested)
05 [4ed10b83] (00/25) No match (V2 was not tested)
06 [b71cc2ef] (00/23) No match (V2 was not tested)
07 [1d87c867] (00/25) No match (V2 was not tested)
08 [dbdd7995] (00/23) No match (V2 was not tested)

Track Peak [ CRC32 ] [W/O NULL] [ LOG ]
– 100,0 [ACAD9D2A] [248AC2F9] CRC32
01 100,0 [F2ABF257] [79B0D47B]
02 100,0 [437C8DC8] [BA5852C3]
03 92,0 [CBE9AE94] [E11BB4DC]
04 93,3 [6394EECA] [B61C5C0D]
05 100,0 [75478618] [52535340]
06 100,0 [53A039C4] [F468E93E]
07 100,0 [09832B99] [E572A1DE]
08 78,0 [B7998449] [B356A756]

Black Sabbath - Collectors' Edition (1999) [3CD Box Set]

All thanks go to dafnaplus

Black Sabbath in my Blog

Download Black Sabbath – Collectors’ Edition (1999):

Black Sabbath – Collectors' Edition (1999) [3CD Box Set] Download, Warez, DDL, Free, Full Album, Torrent, Legal.

Download