Billy Ocean – The Billy Ocean Collection (2002) | ViralVideoPk

Daily Dose of Free Downloads

Billy Ocean – The Billy Ocean Collection (2002)

Download

Billy Ocean - The Billy Ocean Collection (2002)

Billy Ocean – The Billy Ocean Collection (2002)
EAC Rip | FLAC (Tracks) +CUE, LOG | 414 MB | Covers Included
Genre: Pop, R&B, Soul | Label: Sony Music Enterteinment | Catalog Number: 509314 2

The Billy Ocean Collection, released through Sony in the U.K., contains material that predates Ocean’s move to Jive and the singer’s subsequent U.S. mainstream breakthrough. Prior to the likes of "Caribbean Queen" and "Suddenly," he was more popular in the U.K., recording for the GTO label and scoring late-’70s hits with "Love Really Hurts Without You" (number two in the U.K., but also a Top Ten club hit in the U.S.), "L.O.D. (Love on Delivery)," and "Stop Me (If You’ve Heard It All Before)." The disc also includes some highlights from his early-’80s albums, including "Nights (Feel Like Getting Down)" – an excellent slice of slick disco-funk that reached number seven on the Black Singles chart. For an overview of Ocean’s entire career, The Ultimate Collection (2004) is the place to go, but The Billy Ocean Collection demonstrates that he had a lot going for him prior to full-on U.S. stardom.

EAC Log
Exact Audio Copy V1.0 beta 2 from 29. April 2011

EAC extraction logfile from 18. August 2011, 13:04

Billy Ocean / The Collection

Used drive : PLEXTOR DVDR PX-800A Adapter: 4 ID: 0

Read mode : Secure
Utilize accurate stream : Yes
Defeat audio cache : Yes
Make use of C2 pointers : No

Read offset correction : 48
Overread into Lead-In and Lead-Out : No
Fill up missing offset samples with silence : Yes
Delete leading and trailing silent blocks : No
Null samples used in CRC calculations : Yes
Used interface : Native Win32 interface for Win NT & 2000

Used output format : User Defined Encoder
Selected bitrate : 1024 kBit/s
Quality : High
Add ID3 tag : Yes
Command line compressor : C:Program FilesExact Audio CopyFLACFLAC.EXE
Additional command line options : -8 -V -T "ARTIST=%artist%" -T "TITLE=%title%" -T "ALBUM=%albumtitle%" -T "DATE=%year%" -T "TRACKNUMBER=%tracknr%" -T "GENRE=%genre%" -T "COMMENT=%comment%" -T "BAND=%albuminterpret%" -T "COMPOSER=%composer%" %haslyrics%–ta

TOC of the extracted CD

Track | Start | Length | Start sector | End sector
––––––––––––––––––––––––––––-
1 | 0:00.00 | 3:05.19 | 0 | 13893
2 | 3:05.19 | 3:57.67 | 13894 | 31735
3 | 7:03.11 | 2:53.70 | 31736 | 44780
4 | 9:57.06 | 3:41.11 | 44781 | 61366
5 | 13:38.17 | 3:30.09 | 61367 | 77125
6 | 17:08.26 | 2:42.64 | 77126 | 89339
7 | 19:51.15 | 2:38.66 | 89340 | 101255
8 | 22:30.06 | 3:31.12 | 101256 | 117092
9 | 26:01.18 | 3:56.26 | 117093 | 134818
10 | 29:57.44 | 4:27.17 | 134819 | 154860
11 | 34:24.61 | 4:43.17 | 154861 | 176102
12 | 39:08.03 | 3:33.49 | 176103 | 192126
13 | 42:41.52 | 6:18.56 | 192127 | 220532
14 | 49:00.33 | 4:55.66 | 220533 | 242723
15 | 53:56.24 | 4:28.45 | 242724 | 262868
16 | 58:24.69 | 3:50.13 | 262869 | 280131

Range status and errors

Selected range

Filename C:Music LosslessBilly Ocean – The CollectionBilly Ocean – The Collection.wav

Peak level 100.0 %
Extraction speed 7.5 X
Range quality 100.0 %
Test CRC 2A638781
Copy CRC 2A638781
Copy OK

No errors occurred

AccurateRip summary

Track 1 accurately ripped (confidence 3) [0DCD7A36] (AR v1)
Track 2 accurately ripped (confidence 2) [071A005C] (AR v1)
Track 3 accurately ripped (confidence 2) [A1E61CB7] (AR v1)
Track 4 accurately ripped (confidence 2) [F33CBD51] (AR v1)
Track 5 accurately ripped (confidence 3) [B158BE35] (AR v1)
Track 6 accurately ripped (confidence 2) [23A99B9B] (AR v1)
Track 7 accurately ripped (confidence 3) [B9818A6E] (AR v1)
Track 8 accurately ripped (confidence 2) [58F6C8D5] (AR v1)
Track 9 accurately ripped (confidence 2) [129C6AE4] (AR v1)
Track 10 accurately ripped (confidence 2) [DA53724B] (AR v1)
Track 11 accurately ripped (confidence 3) [1A6ECA4B] (AR v1)
Track 12 accurately ripped (confidence 2) [2D4FBE16] (AR v1)
Track 13 accurately ripped (confidence 2) [378E96CB] (AR v1)
Track 14 accurately ripped (confidence 2) [4C69D9D9] (AR v1)
Track 15 accurately ripped (confidence 2) [7957F9B0] (AR v1)
Track 16 accurately ripped (confidence 2) [005D8198] (AR v1)

All tracks accurately ripped

End of status report

==== Log checksum BCA97B351C46D7A2260FFAE7DF48823892DD9D4E853B395B389061B1B2972D94 ====

Tracklist:
01. Love Really Hurts Without You [0:03:05.25]
02. Stop Me (If You’ve Heard It All Before) [0:03:57.89]
03. Whose Little Girl Are You [0:02:53.93]
04. Let’s Do It All Again [0:03:41.14]
05. Tell Him To Move Over [0:03:30.12]
06. L.O.D. (Love On Delivery) [0:02:42.85]
07. Eye Of A Storm [0:02:38.88]
08. Red Light Spells Danger [0:03:31.16]
09. American Hearts [0:03:56.34]
10. Are You Ready? [0:04:27.22]
11. Nights (Feel Like Gettin’ Down) [0:04:43.22]
12. Who’s Gonna Rock You? [0:03:33.65]
13. Whatever Turns You On [0:06:18.74]
14. What You Doing To Me? [0:04:55.88]
15. Dance With Me [0:04:28.60]
16. I Can’t Stop [0:03:50.17]

Billy Ocean – The Billy Ocean Collection (2002) Download, Warez, DDL, Free, Full Album, Torrent, Legal.

Download


  • Recent Posts

  • Recent Tags