Billy Martin/Grant Calvin Weston/DJ Logic – For No One In Particular (2003) {Amulet}

Download
Billy Martin/Grant Calvin Weston/DJ Logic - For No One In Particular (2003) {Amulet}

Billy Martin/Grant Calvin Weston/DJ Logic – For No One In Particular (2003) {Amulet}
EAC Rip | FLAC with CUE and log | scans | 399 mb
MP3 CBR 320kbps | RAR | 141 mb
Genre: free jazz, turntablism

For No One In Particular is a 2003 free jazz album by Billy Martin, Grant Calvin Weston and DJ Logic. Martin is 1/3 of jazz trip Medeski, Martin & Wood, Weston is known for his work with James Blood Ulmer and has done collaborations with Martin, and DJ Logic was a member of Eye & I before becoming an unofficial 4th member of Medeski, Martin & Wood when they were signed to Blue Note. This album combines jazz with free form turntablism.

Billy Martin/Grant Calvin Weston/DJ Logic - For No One In Particular (2003) {Amulet}

01. Far Away (1:22)
02. Landing (5:05)
03. Rice Glue (2:58)
04. Hungry Ghosts (5:36)
05. Ylang Ylang (2:33)
06. Flashing Sword (4:31)
07. Xyloids (4:34)
08. Heart Blood (5:03)
09. Co-Op City (7:00)
10. Starlight (1:43)
11. Hustling Raindrops (10:51)
12. Starry Night (8:31)

Billy Martin-drums, percussion
Grant Calvin Weston-drums, percussion, trumpet
DJ Logic-turntables

Produced by Billy Martin
Recording engineer: Katsuhiko Naito &
David Baker
Live sound engineer: Phillip Harvey
Mixing & editing: Billy Martin & Mike Fossenkemper
Mastered by Mike Fossenkemper

EAC Log
EAC extraction logfile from 20. June 2017, 19:42 for CD
Billy Martin/Grant Calvin Weston/DJ Logic / For No One In Particular

Used drive : TSSTcorpDVD+-RW TS-H653B Adapter: 2 ID: 0
Read mode : Secure with NO C2, accurate stream, disable cache
Read offset correction : 6
Overread into Lead-In and Lead-Out : No

Used output format : Internal WAV Routines
44.100 Hz; 16 Bit; Stereo

Other options :
Fill up missing offset samples with silence : Yes
Delete leading and trailing silent blocks : No
Native Win32 interface for Win NT & 2000

Track 1
Filename C:Documents and SettingsDesktopBilly Martin, Grant Calvin Weston, DJ Logic – For No One In Particular (2003) [FLAC] {Amulet}1 – Far Away.wav

Pre-gap length 0:00:02.00

Peak level 98.8 %
Track quality 100.0 %
Test CRC 7579E02C
Copy CRC 7579E02C
Copy OK

Track 2
Filename C:Documents and SettingsDesktopBilly Martin, Grant Calvin Weston, DJ Logic – For No One In Particular (2003) [FLAC] {Amulet}2 – Landing.wav

Peak level 98.8 %
Track quality 99.9 %
Test CRC 0ECA1539
Copy CRC 0ECA1539
Copy OK

Track 3
Filename C:Documents and SettingsDesktopBilly Martin, Grant Calvin Weston, DJ Logic – For No One In Particular (2003) [FLAC] {Amulet}3 – Rice Glue.wav

Peak level 98.8 %
Track quality 100.0 %
Test CRC C12E5279
Copy CRC C12E5279
Copy OK

Track 4
Filename C:Documents and SettingsDesktopBilly Martin, Grant Calvin Weston, DJ Logic – For No One In Particular (2003) [FLAC] {Amulet}4 – Hungry Ghosts.wav

Peak level 98.8 %
Track quality 99.9 %
Test CRC 54162979
Copy CRC 54162979
Copy OK

Track 5
Filename C:Documents and SettingsDesktopBilly Martin, Grant Calvin Weston, DJ Logic – For No One In Particular (2003) [FLAC] {Amulet}5 – Ylang Ylang.wav

Peak level 98.8 %
Track quality 100.0 %
Test CRC 062DAE44
Copy CRC 062DAE44
Copy OK

Track 6
Filename C:Documents and SettingsDesktopBilly Martin, Grant Calvin Weston, DJ Logic – For No One In Particular (2003) [FLAC] {Amulet}6 – Flashing Sword.wav

Peak level 98.8 %
Track quality 100.0 %
Test CRC 4FD34CED
Copy CRC 4FD34CED
Copy OK

Track 7
Filename C:Documents and SettingsDesktopBilly Martin, Grant Calvin Weston, DJ Logic – For No One In Particular (2003) [FLAC] {Amulet}7 – Xyloids.wav

Peak level 98.8 %
Track quality 100.0 %
Test CRC D2BFDCC6
Copy CRC D2BFDCC6
Copy OK

Track 8
Filename C:Documents and SettingsDesktopBilly Martin, Grant Calvin Weston, DJ Logic – For No One In Particular (2003) [FLAC] {Amulet}8 – Heart Blood.wav

Peak level 98.8 %
Track quality 100.0 %
Test CRC CDC28AF5
Copy CRC CDC28AF5
Copy OK

Track 9
Filename C:Documents and SettingsDesktopBilly Martin, Grant Calvin Weston, DJ Logic – For No One In Particular (2003) [FLAC] {Amulet}9 – Co-Op City.wav

Peak level 98.8 %
Track quality 100.0 %
Test CRC D3204C0F
Copy CRC D3204C0F
Copy OK

Track 10
Filename C:Documents and SettingsDesktopBilly Martin, Grant Calvin Weston, DJ Logic – For No One In Particular (2003) [FLAC] {Amulet}10 – Starlight.wav

Peak level 98.8 %
Track quality 100.0 %
Test CRC BE20C157
Copy CRC BE20C157
Copy OK

Track 11
Filename C:Documents and SettingsDesktopBilly Martin, Grant Calvin Weston, DJ Logic – For No One In Particular (2003) [FLAC] {Amulet}11 – Hustling Raindrops.wav

Peak level 98.8 %
Track quality 100.0 %
Test CRC 3C94CD95
Copy CRC 3C94CD95
Copy OK

Track 12
Filename C:Documents and SettingsDesktopBilly Martin, Grant Calvin Weston, DJ Logic – For No One In Particular (2003) [FLAC] {Amulet}12 – Starry Night.wav

Peak level 98.8 %
Track quality 100.0 %
Test CRC 86B7953F
Copy CRC 86B7953F
Copy OK

No errors occured

End of status report

Billy Martin/Grant Calvin Weston/DJ Logic - For No One In Particular (2003) {Amulet}

Billy Martin/Grant Calvin Weston/DJ Logic – For No One In Particular (2003) {Amulet} Download, Warez, DDL, Free, Full Album, Torrent, Legal.

Download