Billie Holiday – All Or Nothing At All (1958) [Analogue Productions, Remastered 2012] Audio CD Layer

Download
Billie Holiday - All Or Nothing At All (1958) [Analogue Productions, Remastered 2012] Audio CD Layer

Billie Holiday – All Or Nothing At All (1958) [Remastered 2012]
EAC | FLAC | Tracks (Cue&Log) ~ 327 Mb | Mp3 (CBR320) ~ 136 Mb | Scans included | 00:51:12
Vocal Jazz, Swing, Standarts | Label: Analogue Productions/Verve | # CVRJ 8329 SA

Mastered by George Marino at Sterling Sound from the original master tapes to vinyl and PCM. After the publication of her autobiography, Lady Sings The Blues, Billie Holiday was doing good business in clubs in what turned out to be a last burst of stardom. We cannot know why she stopped recording for Norman Granz after January 1957, but All or Nothing at All, is a magnificent culmination of her years with the producer. As this set demonstrates in the subtle blending and dissolving of moods within one number as well as in the emotional changes throughout the program as a whole, perhaps the primary reason Holiday was always able to reach so deeply into her listeners is that more than any other jazz singer, she could communicate the complexities of feeling in which we are all involved. This audiophile hybrid SACD remastering from Analogue Productions offers listeners the best possible sound quality.

Billie Holiday - All Or Nothing At All (1958) [Analogue Productions, Remastered 2012] Audio CD Layer

Billie Holiday at Allmusic
Billie Holiday at Wiki

Billie Holiday, vocals
Ben Webster, tenor saxophone
Harry "Sweets" Edison, trumpet
Jimmy Rowles, piano
Barney Kessel, guitar
Red Mitchell, bass
Joe Mondragon, bass
Larry Bunker, drums
Alvin Stoller, drums

Recorded in Los Angeles, CA on August 14, 1956 – January 8, 1957.

Tracklist:

01. Do Nothin’ Till You Hear from Me (4:16)
02. Cheek to Cheek (3:38)
03. Ill Wind (6:18)
04. Speak Low (4:29)
05. I Wished on the Moon (3:29)
06. But Not for Me (3:52)
07. All or Nothing at All (5:43)
08. We’ll Be Together Again (4:27)
09. Sophisticated Lady (4:53)
10. April in Paris (3:06)
11. Say It Isn’t So (3:19)
12. Love Is Here to Stay (3:43)

EAC log
Exact Audio Copy V1.1 from 23. June 2015

EAC extraction logfile from 12. January 2016, 21:32

Billie Holiday / All Or Nothing At All

Used drive : TSSTcorpCDDVDW SH-224FB Adapter: 1 ID: 0

Read mode : Secure
Utilize accurate stream : Yes
Defeat audio cache : Yes
Make use of C2 pointers : No

Read offset correction : 6
Overread into Lead-In and Lead-Out : No
Fill up missing offset samples with silence : Yes
Delete leading and trailing silent blocks : No
Null samples used in CRC calculations : Yes
Used interface : Native Win32 interface for Win NT & 2000
Gap handling : Appended to previous track

Used output format : User Defined Encoder
Selected bitrate : 1024 kBit/s
Quality : High
Add ID3 tag : No
Command line compressor : C:Program Files (x86)Exact Audio CopyFLACFLAC.EXE
Additional command line options : -8 -V -T "ARTIST=%artist%" -T "TITLE=%title%" -T "ALBUM=%albumtitle%" -T "DATE=%year%" -T "TRACKNUMBER=%tracknr%" -T "GENRE=%genre%" -T "PERFORMER=%albuminterpret%" -T "COMPOSER=%composer%" %haslyrics%–tag-from-file=LYRICS="%lyricsfile%"%haslyrics% -T "ALBUMARTIST=%albumartist%" -T "DISCNUMBER=%cdnumber%" -T "TOTALDISCS=%totalcds%" -T "TOTALTRACKS=%numtracks%" -T "COMMENT=%comment%" %source% -o %dest%

TOC of the extracted CD

Track | Start | Length | Start sector | End sector
––––––––––––––––––––––––––––-
1 | 0:00.00 | 4:16.26 | 0 | 19225
2 | 4:16.26 | 3:37.38 | 19226 | 35538
3 | 7:53.64 | 6:18.06 | 35539 | 63894
4 | 14:11.70 | 4:29.12 | 63895 | 84081
5 | 18:41.07 | 3:28.69 | 84082 | 99750
6 | 22:10.01 | 3:51.57 | 99751 | 117132
7 | 26:01.58 | 5:42.50 | 117133 | 142832
8 | 31:44.33 | 4:27.26 | 142833 | 162883
9 | 36:11.59 | 4:52.61 | 162884 | 184844
10 | 41:04.45 | 3:05.45 | 184845 | 198764
11 | 44:10.15 | 3:19.06 | 198765 | 213695
12 | 47:29.21 | 3:42.45 | 213696 | 230390

Track 1

Filename C:Ripped Music1 Do Nothin’ Till You Hear From Me.wav

Pre-gap length 0:00:02.00

Peak level 85.2 %
Extraction speed 2.0 X
Track quality 100.0 %
Test CRC 65A576F5
Copy CRC 65A576F5
Accurately ripped (confidence 7) [DD5963D2] (AR v2)
Copy OK

Track 2

Filename C:Ripped Music2 Cheeck To Cheek.wav

Pre-gap length 0:00:03.21

Peak level 78.5 %
Extraction speed 2.1 X
Track quality 100.0 %
Test CRC 7FA38195
Copy CRC 7FA38195
Accurately ripped (confidence 7) [085768B5] (AR v2)
Copy OK

Track 3

Filename C:Ripped Music3 Ill Wind.wav

Pre-gap length 0:00:02.65

Peak level 94.1 %
Extraction speed 2.5 X
Track quality 100.0 %
Test CRC DFC8EDC3
Copy CRC DFC8EDC3
Accurately ripped (confidence 7) [FCB0BAB7] (AR v2)
Copy OK

Track 4

Filename C:Ripped Music4 Speak Low.wav

Pre-gap length 0:00:03.06

Peak level 72.6 %
Extraction speed 2.6 X
Track quality 100.0 %
Test CRC 4928ABBF
Copy CRC 4928ABBF
Accurately ripped (confidence 7) [E4435652] (AR v2)
Copy OK

Track 5

Filename C:Ripped Music5 I Wished On Th Emoon.wav

Pre-gap length 0:00:02.68

Peak level 65.3 %
Extraction speed 2.7 X
Track quality 100.0 %
Test CRC 7074EBDB
Copy CRC 7074EBDB
Accurately ripped (confidence 7) [76A7A23F] (AR v2)
Copy OK

Track 6

Filename C:Ripped Music6 But Not For Me.wav

Pre-gap length 0:00:02.98

Peak level 65.4 %
Extraction speed 2.3 X
Track quality 99.9 %
Test CRC 950B8A1E
Copy CRC 950B8A1E
Accurately ripped (confidence 7) [DBB60F2E] (AR v2)
Copy OK

Track 7

Filename C:Ripped Music7 All Or Nothing At All.wav

Pre-gap length 0:00:03.05

Peak level 67.4 %
Extraction speed 3.1 X
Track quality 100.0 %
Test CRC 326725C9
Copy CRC 326725C9
Accurately ripped (confidence 7) [7E43E8C0] (AR v2)
Copy OK

Track 8

Filename C:Ripped Music8 We’ll Be Together Again.wav

Pre-gap length 0:00:02.98

Peak level 74.4 %
Extraction speed 3.2 X
Track quality 100.0 %
Test CRC 2F5EA90F
Copy CRC 2F5EA90F
Accurately ripped (confidence 7) [5AAE9161] (AR v2)
Copy OK

Track 9

Filename C:Ripped Music9 Sophisticated Lady.wav

Pre-gap length 0:00:02.92

Peak level 70.3 %
Extraction speed 2.7 X
Track quality 99.9 %
Test CRC AAA2EEE5
Copy CRC AAA2EEE5
Accurately ripped (confidence 7) [1068245B] (AR v2)
Copy OK

Track 10

Filename C:Ripped Music10 April In Paris.wav

Pre-gap length 0:00:03.05

Peak level 59.4 %
Extraction speed 2.3 X
Track quality 99.9 %
Test CRC A8997B7B
Copy CRC A8997B7B
Accurately ripped (confidence 7) [B0F1BE1A] (AR v2)
Copy OK

Track 11

Filename C:Ripped Music11 Say It Isn’t So.wav

Pre-gap length 0:00:03.12

Peak level 71.0 %
Extraction speed 3.4 X
Track quality 100.0 %
Test CRC D66A39ED
Copy CRC D66A39ED
Accurately ripped (confidence 7) [7C722394] (AR v2)
Copy OK

Track 12

Filename C:Ripped Music12 Love Is Here To Stay.wav

Pre-gap length 0:00:02.45

Peak level 66.7 %
Extraction speed 3.5 X
Track quality 100.0 %
Test CRC AE10F8F7
Copy CRC AE10F8F7
Accurately ripped (confidence 7) [9550506E] (AR v2)
Copy OK

All tracks accurately ripped

No errors occurred

End of status report

–– CUETools DB Plugin V2.1.6

[CTDB TOCID: djla6yfXzs70X5h11fOlfg1LjXY-] found
Submit result: djla6yfXzs70X5h11fOlfg1LjXY- has been confirmed
Track | CTDB Status
1 | (2/2) Accurately ripped
2 | (2/2) Accurately ripped
3 | (2/2) Accurately ripped
4 | (2/2) Accurately ripped
5 | (2/2) Accurately ripped
6 | (2/2) Accurately ripped
7 | (2/2) Accurately ripped
8 | (2/2) Accurately ripped
9 | (2/2) Accurately ripped
10 | (2/2) Accurately ripped
11 | (2/2) Accurately ripped
12 | (2/2) Accurately ripped

==== Log checksum 20984C170F172D223CC9BD17A4D9C189A9A1961C058A83F42B643471AA4577FF ====

DR log
foobar2000 1.2 / Dynamic Range Meter 1.1.1
log date: 2017-07-27 22:26:18

––––––––––––––––––––––––––––––––––––––––
Analyzed: Billie Holiday / All or Nothing at All
––––––––––––––––––––––––––––––––––––––––

DR Peak RMS Duration Track
––––––––––––––––––––––––––––––––––––––––
DR14 -1.38 dB -17.74 dB 4:16 01-Do Nothin’ Till You Hear from Me
DR13 -2.09 dB -18.03 dB 3:38 02-Cheek to Cheek
DR16 -0.52 dB -19.84 dB 6:18 03-Ill Wind
DR12 -2.77 dB -17.01 dB 4:29 04-Speak Low
DR12 -3.70 dB -18.20 dB 3:29 05-I Wished on the Moon
DR13 -3.68 dB -18.08 dB 3:52 06-But Not for Me
DR12 -3.43 dB -17.98 dB 5:43 07-All or Nothing at All
DR13 -2.56 dB -18.05 dB 4:27 08-We’ll Be Together Again
DR14 -3.06 dB -21.63 dB 4:53 09-Sophisticated Lady
DR12 -4.52 dB -19.79 dB 3:06 10-April in Paris
DR12 -2.97 dB -18.66 dB 3:19 11-Say It Isn’t So
DR12 -3.51 dB -17.38 dB 3:43 12-Love Is Here to Stay
––––––––––––––––––––––––––––––––––––––––

Number of tracks: 12
Official DR value: DR13

Samplerate: 44100 Hz
Channels: 2
Bits per sample: 16
Bitrate: 595 kbps
Codec: FLAC
================================================================================

Billie Holiday - All Or Nothing At All (1958) [Analogue Productions, Remastered 2012] Audio CD Layer

Billie Holiday - All Or Nothing At All (1958) [Analogue Productions, Remastered 2012] Audio CD Layer

All thanks to original releaser

More interesting music in My Blog

Billie Holiday – Rare Live Recordings 1934-1959 (2007) 5CD Box Set

Billie Holiday – The Ben Webster / Harry Edison Sessions (2009) 2CD

Billie Holiday – The Real… Billie Holiday, The Ultimate Collection (2011) 3 CDs

Billie Holiday – All Or Nothing At All (1958) [Analogue Productions, Remastered 2012] Audio CD Layer Download, Warez, DDL, Free, Full Album, Torrent, Legal.

Download