Bill Mason/Gary Chandler – Gettin' Off/Outlook (1972) {1999 Westbound}

Download
Bill Mason/Gary Chandler - Gettin' Off/Outlook (1972) {1999 Westbound}

Bill Mason/Gary Chandler – Gettin’ Off/Outlook (1972) {1999 Westbound}
EAC Rip | FLAC with CUE and log | scans | 396 mb
MP3 CBR 320kbps | RAR | 157 mb
Genre: jazz, jazz soul

Gettin’ Off/Outlook is a 2-for-1 collection of albums by Bill Mason and Gary Chandler. Both originally released on the Eastbound label in 1972, they remained out of print until Westbound/Ace in the UK released them on one CD. Outlook is the album in full while Gettin’ Off features an edit of "Let’s Stay Together" as the label claimed they had to sacrifice it due to the CD time limit. The CD had under 19 minutes left to fill but Ace chose to use only half of "Let’s Stay Together".

Bill Mason/Gary Chandler - Gettin' Off/Outlook (1972) {1999 Westbound}

Bill Mason – Gettin’ Off
01. Gettin’ Off
02. Let’s Stay Together
03. Now Run And Tell That
04. Stone
05. Mister Jay

Bill Mason-organ
Hubert Laws-tenor sax, flute
Gary Chandler-trumpet
Wilbert Longmire-guitar
Gordon Edwards-Fender bass
Idris Muhammad-drums
Ron Coleman-conga

Produced by Bob Porter
Engineered by Rudy Van Gelder

===

Gary Chandler – Outlook
06. Baby Let Me Take You (In My Arms)
07. Flamingo
08. Kaleidoscope
09. The Jet Set
10. Blue Dues

Gary Chandler-trumpet
Dick Griffin-trombone
Harold Ousley-tenor sax
Caesar Frazier-organ
Cornell Dupree-guitar
Gordon Edwards-Fender bass
Idris Muhammad-drums
Bobby Caldwell-conga, tambourine

Produced by Bob Porter
Engineered by Rudy Van Gelder

Remastered by Nick Robbins

EAC Log
EAC extraction logfile from 27. June 2017, 0:53 for CD
Bill Mason/Gary Chandler / Gettin’ Off/Outlook

Used drive : TSSTcorpDVD+-RW TS-H653B Adapter: 2 ID: 0
Read mode : Secure with NO C2, accurate stream, disable cache
Read offset correction : 6
Overread into Lead-In and Lead-Out : No

Used output format : Internal WAV Routines
44.100 Hz; 16 Bit; Stereo

Other options :
Fill up missing offset samples with silence : Yes
Delete leading and trailing silent blocks : No
Native Win32 interface for Win NT & 2000

Track 1
Filename C:Documents and SettingscuntfistDesktopFLAC’s16Bill Mason, Gary Chandler – Gettin’ Off, Outlook (1972) [FLAC] {1999 Westbound}1 – Bill Mason – Gettin’ Off.wav

Pre-gap length 0:00:02.00

Peak level 78.0 %
Track quality 100.0 %
Test CRC 062C98C9
Copy CRC 062C98C9
Copy OK

Track 2
Filename C:Documents and SettingscuntfistDesktopFLAC’s16Bill Mason, Gary Chandler – Gettin’ Off, Outlook (1972) [FLAC] {1999 Westbound}2 – Bill Mason – Let’s Stay Together.wav

Pre-gap length 0:00:01.84

Peak level 64.3 %
Track quality 100.0 %
Test CRC E0A07658
Copy CRC E0A07658
Copy OK

Track 3
Filename C:Documents and SettingscuntfistDesktopFLAC’s16Bill Mason, Gary Chandler – Gettin’ Off, Outlook (1972) [FLAC] {1999 Westbound}3 – Bill Mason – Now Run And Tell That.wav

Pre-gap length 0:00:03.20

Peak level 81.4 %
Track quality 100.0 %
Test CRC CE69D4E7
Copy CRC CE69D4E7
Copy OK

Track 4
Filename C:Documents and SettingscuntfistDesktopFLAC’s16Bill Mason, Gary Chandler – Gettin’ Off, Outlook (1972) [FLAC] {1999 Westbound}4 – Bill Mason – Stone.wav

Pre-gap length 0:00:01.25

Peak level 73.4 %
Track quality 100.0 %
Test CRC 30DFCD46
Copy CRC 30DFCD46
Copy OK

Track 5
Filename C:Documents and SettingscuntfistDesktopFLAC’s16Bill Mason, Gary Chandler – Gettin’ Off, Outlook (1972) [FLAC] {1999 Westbound}5 – Bill Mason – Mister Jay.wav

Pre-gap length 0:00:03.30

Peak level 73.9 %
Track quality 100.0 %
Test CRC 090ACEBB
Copy CRC 090ACEBB
Copy OK

Track 6
Filename C:Documents and SettingscuntfistDesktopFLAC’s16Bill Mason, Gary Chandler – Gettin’ Off, Outlook (1972) [FLAC] {1999 Westbound}6 – Gary Chandler – Baby Let Me Take You (In My Arms).wav

Pre-gap length 0:00:03.76

Peak level 87.3 %
Track quality 100.0 %
Test CRC 88AA6CC3
Copy CRC 88AA6CC3
Copy OK

Track 7
Filename C:Documents and SettingscuntfistDesktopFLAC’s16Bill Mason, Gary Chandler – Gettin’ Off, Outlook (1972) [FLAC] {1999 Westbound}7 – Gary Chandler – Flamingo.wav

Pre-gap length 0:00:00.46

Peak level 83.6 %
Track quality 100.0 %
Test CRC 10491B7B
Copy CRC 10491B7B
Copy OK

Track 8
Filename C:Documents and SettingscuntfistDesktopFLAC’s16Bill Mason, Gary Chandler – Gettin’ Off, Outlook (1972) [FLAC] {1999 Westbound}8 – Gary Chandler – Kaleidoscope.wav

Pre-gap length 0:00:03.21

Peak level 83.7 %
Track quality 100.0 %
Test CRC 9509970D
Copy CRC 9509970D
Copy OK

Track 9
Filename C:Documents and SettingscuntfistDesktopFLAC’s16Bill Mason, Gary Chandler – Gettin’ Off, Outlook (1972) [FLAC] {1999 Westbound}9 – Gary Chandler – The Jet Set.wav

Pre-gap length 0:00:01.70

Peak level 77.0 %
Track quality 99.9 %
Test CRC 0DBB6A01
Copy CRC 0DBB6A01
Copy OK

Track 10
Filename C:Documents and SettingscuntfistDesktopFLAC’s16Bill Mason, Gary Chandler – Gettin’ Off, Outlook (1972) [FLAC] {1999 Westbound}10 – Gary Chandler – Blue Dues.wav

Pre-gap length 0:00:02.92

Peak level 72.8 %
Track quality 100.0 %
Test CRC 861475E0
Copy CRC 861475E0
Copy OK

No errors occured

End of status report

Bill Mason/Gary Chandler - Gettin' Off/Outlook (1972) {1999 Westbound}

Bill Mason/Gary Chandler – Gettin' Off/Outlook (1972) {1999 Westbound} Download, Warez, DDL, Free, Full Album, Torrent, Legal.

Download