Betty Wright – The Very Best Of Betty Wright (2000)

Download
Betty Wright - The Very Best Of Betty Wright (2000)

Betty Wright – The Very Best Of Betty Wright (2000)
EAC | FLAC | Image (Cue&Log) ~ 318 Mb | Mp3 (CBR320) ~ 142 Mb
Soul, R&B | Label: Rhino | # 8122-79861-2 | Time: 00:49:49 | Scans included

Rhino’s Very Best of Betty Wright collects some of the soul diva’s definitive tracks, including her first Top 40 hit "Girls Can’t Do What the Guys Do," her 1971 Top 10 hit "Clean Up Woman," "Let Me Your Lovemaker," her 1974 Grammy winner "Where Is the Love," and "I’m Gettin’ Tired Baby." Though it’s not as extensive as the label’s earlier compilation The Best of Betty Wright, this album does present most of her major singles as well as a few representative album tracks.

Review by Heather Phares, Allmusic.com

Betty Wright at Allmusic
Betty Wright at Wiki

Tracklist:

01. Clean Up Woman (02:48)
02. Girls Can’t Do What The Guys Do (02:06)
03. He’s Bad Bad Bad (02:24)
04. Pure Love (02:35)
05. I’m Gettin’ Tired Baby (02:42)
06. Is It You Girl (03:16)
07. Baby Sitter (02:54)
08. It’s Hard To Stop (Doing Something When It’s Good To You) (03:13)
09. Let Me Be Your Lovemaker (03:19)
10. Secretary (02:54)
11. Shoorah! Shoorah! (02:54)
12. Where Is The Love (03:59)
13. Ooola La (02:52)
14. Slip And Do It (03:16)
15. You Can’t See For Lookin’ (05:01)
16. Tonight Is Night Pt.1 (Rap) (03:29)

EAC log
Exact Audio Copy V0.99 prebeta 5 from 4. May 2009

Отчёт EAC об извлечении, выполненном 27. августа 2011, 11:37

Betty Wright / The Very Best Of Betty Wright

Дисковод: MATSHITAUJDA755 DVD/CDRW Adapter: 1 ID: 0

Режим чтения : Достоверность
Использование точного потока : Да
Отключение кэша аудио : Да
Использование указателей C2 : Нет

Коррекция смещения при чтении : 102
Способность читать области Lead-in и Lead-out : Нет
Заполнение пропущенных сэмплов тишиной : Да
Удаление блоков с тишиной в начале и конце : Нет
При вычислениях CRC использовались нулевые сэмплы : Да
Интерфейс : Встроенный Win32-интерфейс для Win NT/2000

Выходной формат : Пользовательский кодировщик
Выбранный битрейт : 768 kBit/s
Качество : Высокий
Добавление ID3-тэга : Нет
Утилита сжатия : C:Program FilesExact Audio CopyFLACFLAC.EXE
Дополнительные параметры : -8 -V %s

TOC извлечённого CD

Трек | Старт | Длительность | Начальный сектор | Конечный сектор
––––––––––––––––––––––––––––––––––-
1 | 0:00.00 | 2:48.27 | 0 | 12626
2 | 2:48.27 | 2:06.73 | 12627 | 22149
3 | 4:55.25 | 2:24.20 | 22150 | 32969
4 | 7:19.45 | 2:35.57 | 32970 | 44651
5 | 9:55.27 | 2:42.35 | 44652 | 56836
6 | 12:37.62 | 3:16.33 | 56837 | 71569
7 | 15:54.20 | 2:54.65 | 71570 | 84684
8 | 18:49.10 | 3:13.02 | 84685 | 99161
9 | 22:02.12 | 3:19.45 | 99162 | 114131
10 | 25:21.57 | 2:54.50 | 114132 | 127231
11 | 28:16.32 | 2:54.45 | 127232 | 140326
12 | 31:11.02 | 3:59.03 | 140327 | 158254
13 | 35:10.05 | 2:52.45 | 158255 | 171199
14 | 38:02.50 | 3:16.35 | 171200 | 185934
15 | 41:19.10 | 5:01.07 | 185935 | 208516
16 | 46:20.17 | 3:29.45 | 208517 | 224236

Характеристики диапазона извлечения и сообщения об ошибках

Выбранный диапазон

Имя файла G:FLACиBetty Wright – The Very Best Of (2000)Betty Wright – The Very Best Of Betty Wright.wav

Пиковый уровень 100.0 %
Качество диапазона 100.0 %
CRC теста 59709A4E
CRC копии 59709A4E
Копирование… OK

Ошибок не произошло

AccurateRip: сводка

Трек 1 точное извлечение (доверие 5) [ED62EE4E]
Трек 2 точное извлечение (доверие 5) [297BA8C9]
Трек 3 точное извлечение (доверие 5) [1016E733]
Трек 4 точное извлечение (доверие 5) [E46306DD]
Трек 5 точное извлечение (доверие 5) [5173BD78]
Трек 6 точное извлечение (доверие 5) [3E1A10FD]
Трек 7 точное извлечение (доверие 5) [0279DC75]
Трек 8 точное извлечение (доверие 5) [5F0034FA]
Трек 9 точное извлечение (доверие 5) [596DD35B]
Трек 10 точное извлечение (доверие 5) [4CFB008A]
Трек 11 точное извлечение (доверие 5) [28882208]
Трек 12 точное извлечение (доверие 4) [BE963A7F]
Трек 13 точное извлечение (доверие 4) [EDAD13E6]
Трек 14 точное извлечение (доверие 4) [43708A51]
Трек 15 точное извлечение (доверие 4) [E7F471C9]
Трек 16 точное извлечение (доверие 4) [20AFA139]

Все треки извлечены точно

Конец отчёта

DR log
foobar2000 1.2.1 / Dynamic Range Meter 1.1.1
log date: 2013-02-15 15:26:59

––––––––––––––––––––––––––––––––––––––––
Analyzed: Betty Wright / The Very Best Of Betty Wright
––––––––––––––––––––––––––––––––––––––––

DR Peak RMS Duration Track
––––––––––––––––––––––––––––––––––––––––
DR13 -0.17 dB -15.48 dB 2:48 01-Clean Up Woman
DR12 -0.59 dB -15.71 dB 2:07 02-Girls Can’t Do What The Guys Do
DR12 0.00 dB -14.94 dB 2:24 03-He’s Bad Bad Bad
DR12 -0.97 dB -15.96 dB 2:36 04-Pure Love
DR12 0.00 dB -14.38 dB 2:42 05-I’m Gettin’ Tired Baby
DR14 0.00 dB -15.82 dB 3:16 06-Is It You Girl
DR12 0.00 dB -13.75 dB 2:55 07-Baby Sitter
DR12 0.00 dB -12.84 dB 3:13 08-It’s Hard To Stop (Doing Something When It’s Good To You)
DR11 -0.12 dB -14.68 dB 3:20 09-Let Me Be Your Lovemaker
DR13 -0.01 dB -15.49 dB 2:55 10-Secretary
DR13 -0.01 dB -16.07 dB 2:55 11-Shoorah! Shoorah!
DR12 -0.79 dB -14.87 dB 3:59 12-Where Is The Love
DR13 -0.23 dB -15.48 dB 2:53 13-Ooola La
DR14 0.00 dB -15.56 dB 3:16 14-Slip And Do It
DR15 0.00 dB -18.93 dB 5:01 15-You Can’t See For Lookin’
DR14 -0.77 dB -17.61 dB 3:30 16-Tonight Is Night Pt.1 (Rap)
––––––––––––––––––––––––––––––––––––––––

Number of tracks: 16
Official DR value: DR13

Samplerate: 44100 Hz
Channels: 2
Bits per sample: 16
Bitrate: 815 kbps
Codec: FLAC
================================================================================

Betty Wright - The Very Best Of Betty Wright (2000)

Betty Wright - The Very Best Of Betty Wright (2000)

All thanks to original releaser – Nicton

More interesting music in My Blog

Betty Wright – The Very Best Of Betty Wright (2000) Download, Warez, DDL, Free, Full Album, Torrent, Legal.

Download