Ben Perowsky presents Moodswing Orchestra – s/t (2009) {El Destructo} | ViralVideoPk

Daily Dose of Free Downloads

Ben Perowsky presents Moodswing Orchestra – s/t (2009) {El Destructo}

Download

Ben Perowsky presents Moodswing Orchestra - s/t (2009) {El Destructo}

Ben Perowsky presents Moodswing Orchestra – s/t (2009) {El Destructo}
EAC Rip | FLAC with CUE and log | scans | 222 mb
MP3 CBR 320kbps | RAR | 99 mb
Genre: alternative, alternative pop, jazz, soul, R&B, downtempo

Moodswing Orchestra is a musical superground founded by American jazz drummer Ben Perowsky. Incorporating his jazz influences, he also merges portions of soul, funk, and downtempo to create a wonderful blend of his own brand of smoothness. Some of the people included in this supergroup include Miho Hatori of Cibo Matto, Oren Bloedow, Jennifer Charles, Steven Bernstein, Pamelia Kurstin. Bebel Gilberto, and others. This was the second and last album released on his own label, El Destructo Records.

Ben Perowsky presents Moodswing Orchestra - s/t (2009) {El Destructo}

1. Sweet Adelaide (5:34)
2. 1972 (4:29)
3. Dolly (5:55)
4. Kings Fall (7:06)
5. Till U Die (3:01)
6. Land Of Snow (4:28)
7. High Waters (4:08)
8. Birds On Fire (5:39)
9. Acheron Way (3:21)

EAC Log
Exact Audio Copy V1.1 from 23. June 2015

EAC extraction logfile from 1. January 2017, 8:53

Moodswing Orchestra / Ben Perowsky presents Moodswing Orchestra

Used drive : TEAC DVD-ROM DV-28SW Adapter: 1 ID: 0

Read mode : Secure
Utilize accurate stream : Yes
Defeat audio cache : Yes
Make use of C2 pointers : No

Read offset correction : 6
Overread into Lead-In and Lead-Out : No
Fill up missing offset samples with silence : Yes
Delete leading and trailing silent blocks : No
Null samples used in CRC calculations : Yes
Used interface : Native Win32 interface for Win NT & 2000
Gap handling : Appended to previous track

Used output format : Internal WAV Routines
Sample format : 44.100 Hz; 16 Bit; Stereo

TOC of the extracted CD

Track | Start | Length | Start sector | End sector
––––––––––––––––––––––––––––-
1 | 0:00.00 | 5:34.50 | 0 | 25099
2 | 5:34.50 | 4:29.13 | 25100 | 45287
3 | 10:03.63 | 5:55.40 | 45288 | 71952
4 | 15:59.28 | 7:06.61 | 71953 | 103963
5 | 23:06.14 | 3:01.68 | 103964 | 117606
6 | 26:08.07 | 4:25.50 | 117607 | 137531
7 | 30:33.57 | 4:08.68 | 137532 | 156199
8 | 34:42.50 | 5:39.34 | 156200 | 181658
9 | 40:22.09 | 3:21.36 | 181659 | 196769

Track 1

Filename C:My DocumentsMy FLACBen Perowsky presents Moodswing Orchestra – s-t (2009) [FLAC] {El Destructo}1 – Sweet Adelaide.wav

Pre-gap length 0:00:02.00

Peak level 99.8 %
Extraction speed 1.8 X
Track quality 99.9 %
Test CRC A7EEB582
Copy CRC A7EEB582
Cannot be verified as accurate (confidence 1) [9DAB77BE], AccurateRip returned [0EA3079D] (AR v2)
Copy OK

Track 2

Filename C:My DocumentsMy FLACBen Perowsky presents Moodswing Orchestra – s-t (2009) [FLAC] {El Destructo}2 – 1972.wav

Peak level 99.8 %
Extraction speed 2.2 X
Track quality 100.0 %
Test CRC FD2509EB
Copy CRC FD2509EB
Cannot be verified as accurate (confidence 1) [FCACB397], AccurateRip returned [B6CD21C3] (AR v2)
Copy OK

Track 3

Filename C:My DocumentsMy FLACBen Perowsky presents Moodswing Orchestra – s-t (2009) [FLAC] {El Destructo}3 – Dolly.wav

Peak level 99.8 %
Extraction speed 2.3 X
Track quality 99.9 %
Test CRC ACF6541F
Copy CRC ACF6541F
Cannot be verified as accurate (confidence 1) [6DA074A4], AccurateRip returned [6FA6838B] (AR v2)
Copy OK

Track 4

Filename C:My DocumentsMy FLACBen Perowsky presents Moodswing Orchestra – s-t (2009) [FLAC] {El Destructo}4 – Kings Fall.wav

Peak level 99.8 %
Extraction speed 2.9 X
Track quality 100.0 %
Test CRC CF8B003C
Copy CRC CF8B003C
Cannot be verified as accurate (confidence 1) [BBA78486], AccurateRip returned [4DCE7CE4] (AR v2)
Copy OK

Track 5

Filename C:My DocumentsMy FLACBen Perowsky presents Moodswing Orchestra – s-t (2009) [FLAC] {El Destructo}5 – Till U Die.wav

Peak level 99.8 %
Extraction speed 2.3 X
Track quality 99.9 %
Test CRC 1FC39038
Copy CRC 1FC39038
Cannot be verified as accurate (confidence 1) [FD50F791], AccurateRip returned [53B02BFC] (AR v2)
Copy OK

Track 6

Filename C:My DocumentsMy FLACBen Perowsky presents Moodswing Orchestra – s-t (2009) [FLAC] {El Destructo}6 – Land Of Snow.wav

Peak level 99.8 %
Extraction speed 3.0 X
Track quality 100.0 %
Test CRC 352AFC29
Copy CRC 352AFC29
Cannot be verified as accurate (confidence 1) [EA26F79A], AccurateRip returned [CD9D48DD] (AR v2)
Copy OK

Track 7

Filename C:My DocumentsMy FLACBen Perowsky presents Moodswing Orchestra – s-t (2009) [FLAC] {El Destructo}7 – High Waters.wav

Peak level 99.6 %
Extraction speed 3.1 X
Track quality 100.0 %
Test CRC 5E1F60E1
Copy CRC 5E1F60E1
Cannot be verified as accurate (confidence 1) [487D2B7D], AccurateRip returned [265B85F2] (AR v2)
Copy OK

Track 8

Filename C:My DocumentsMy FLACBen Perowsky presents Moodswing Orchestra – s-t (2009) [FLAC] {El Destructo}8 – Birds On Fire.wav

Peak level 99.8 %
Extraction speed 0.8 X
Track quality 100.0 %
Test CRC 9AEA0E7E
Copy CRC 9AEA0E7E
Cannot be verified as accurate (confidence 1) [0AB76C34], AccurateRip returned [5CADD489] (AR v2)
Copy OK

Track 9

Filename C:My DocumentsMy FLACBen Perowsky presents Moodswing Orchestra – s-t (2009) [FLAC] {El Destructo}9 – Acheron Way.wav

Peak level 99.8 %
Extraction speed 3.1 X
Track quality 100.0 %
Test CRC 81D097F4
Copy CRC 81D097F4
Cannot be verified as accurate (confidence 1) [0F76A9C8], AccurateRip returned [C883619D] (AR v2)
Copy OK

No tracks could be verified as accurate
You may have a different pressing from the one(s) in the database

No errors occurred

End of status report

–– CUETools DB Plugin V2.1.6

[CTDB TOCID: gznf_JMAUpKkC1dp0CvS7K6xXUc-] found
Submit result: gznf_JMAUpKkC1dp0CvS7K6xXUc- has been confirmed
Track | CTDB Status
1 | (1/1) Accurately ripped
2 | (1/1) Accurately ripped
3 | (1/1) Accurately ripped
4 | (1/1) Accurately ripped
5 | (1/1) Accurately ripped
6 | (1/1) Accurately ripped
7 | (1/1) Accurately ripped
8 | (1/1) Accurately ripped
9 | (1/1) Accurately ripped

==== Log checksum 7EFEF3A98E81AA5CA54B9814B296B431BE5BB3FD7B69BEDF9DBC94CE213CA1FE ====

Ben Perowsky presents Moodswing Orchestra - s/t (2009) {El Destructo}

Ben Perowsky presents Moodswing Orchestra – s/t (2009) {El Destructo} Download, Warez, DDL, Free, Full Album, Torrent, Legal.

Download


  • Recent Posts

  • Recent Tags