Bee Gees – Spirits Having Flown (1979) [US 1st Press, 1985]

Download
Bee Gees - Spirits Having Flown (1979) [US 1st Press, 1985]

Bee Gees – Spirits Having Flown (1979) [US 1st Press, 1985]
EAC Rip | FLAC: Image+Cue+Log | 306 Mb | MP3 CBR 320 kbps | 128 Mb | Scans | 97 Mb | Time: 45:32
Polydor | 827 335-2
Pop Rock, Soft Rock, Disco

"Spirits Having Flown" is the fifteenth album released by the Bee Gees. It was the group’s first album after their collaboration on the Saturday Night Fever soundtrack. The album’s first three tracks were released as singles and all reached No. 1 in the US, giving the Bee Gees an unbroken run of six US chart-toppers and tying a record set by The Beatles. It was the first Bee Gees album to make the UK top 40 in ten years (not counting the soundtrack for Saturday Night Fever), as well as being their first and only UK No. 1 album. It has sold 20 million copies worldwide.

Bee Gees - Spirits Having Flown (1979) [US 1st Press, 1985]
Bee Gees
Wikipedia | Amazon
Bee Gees - Spirits Having Flown (1979) [US 1st Press, 1985]

Track Listing

01. Tragedy (5:05)
02. Too Much Heaven (4:58)
03. Love You Inside Out (4:13)
04. Reaching Out (4:07)
05. Spirits (Having Flown) (5:22)
06. Search, Find (4:16)
07. Stop (Think Again) (6:41)
08. Living Together (4:23)
09. I’m Satisfied (3:59)
10. Until (2:28)

Produced by Bee Gees, Karl Richardson and Albhy Galuten

Musicians

• Barry Gibb – vocals, rhythm guitar
• Robin Gibb – vocals, lead vocals on "Living Together"
• Maurice Gibb – bass, harmony vocals

*****
• Alan Kendall – lead guitar
• Blue Weaver – synthesiser, piano, keyboards, vibraphone, Arp
• Dennis Bryon – drums

*****
• Neal Bonsanti, Ken Faulk, Peter Graves, Lee Loughnane, James Pankow, Walter Parazaider, Bill Purse, Whit Sidener, Stan Webb – horns
• Gary Brown – saxophone
• Harold Cowart – bass
• Albhy Galuten – synthesiser, bass, conductor
• Joe Lala, Daniel Ben Zubulon – percussion, conga
• Herbie Mann – flute
• George Terry – guitar

EAC Log
Exact Audio Copy V1.0 beta 3 from 29. August 2011

EAC extraction logfile from 22. October 2013, 23:09

Bee Gees / Spirits Having Flown

Used drive : PLEXTOR DVDR PX-810SA Adapter: 2 ID: 0

Read mode : Secure
Utilize accurate stream : Yes
Defeat audio cache : Yes
Make use of C2 pointers : No

Read offset correction : 48
Overread into Lead-In and Lead-Out : No
Fill up missing offset samples with silence : Yes
Delete leading and trailing silent blocks : No
Null samples used in CRC calculations : Yes
Used interface : Installed external ASPI interface

Used output format : User Defined Encoder
Selected bitrate : 1024 kBit/s
Quality : High
Add ID3 tag : No
Command line compressor : C:Program Files (x86)Exact Audio CopyFlacflac.exe
Additional command line options : -8 -V -T "Date=%year%" -T "Genre=%genre%" -T "COMMENT=ripped by bvstudio®" %source%

TOC of the extracted CD

Track | Start | Length | Start sector | End sector
––––––––––––––––––––––––––––-
1 | 0:00.00 | 5:05.17 | 0 | 22891
2 | 5:05.17 | 4:57.60 | 22892 | 45226
3 | 10:03.02 | 4:13.10 | 45227 | 64211
4 | 14:16.12 | 4:07.05 | 64212 | 82741
5 | 18:23.17 | 5:21.38 | 82742 | 106854
6 | 23:44.55 | 4:16.07 | 106855 | 126061
7 | 28:00.62 | 6:41.28 | 126062 | 156164
8 | 34:42.15 | 4:23.15 | 156165 | 175904
9 | 39:05.30 | 3:58.37 | 175905 | 193791
10 | 43:03.67 | 2:27.68 | 193792 | 204884

Range status and errors

Selected range

Filename F:1979 – Spirits Having Flown (1985 – Polydor. USA – 827 335-2)Bee Gees – Spirits Having Flown.wav

Peak level 100.0 %
Extraction speed 6.8 X
Range quality 100.0 %
Test CRC 57689D31
Copy CRC 57689D31
Copy OK

No errors occurred

AccurateRip summary

Track 1 accurately ripped (confidence 2) [7913A037] (AR v2)
Track 2 accurately ripped (confidence 2) [681A26DE] (AR v2)
Track 3 accurately ripped (confidence 2) [7D1DEDCC] (AR v2)
Track 4 accurately ripped (confidence 2) [A0225041] (AR v2)
Track 5 accurately ripped (confidence 2) [9B38D583] (AR v2)
Track 6 accurately ripped (confidence 2) [E941BC63] (AR v2)
Track 7 accurately ripped (confidence 2) [E7E8C06E] (AR v2)
Track 8 accurately ripped (confidence 2) [6E707CFC] (AR v2)
Track 9 accurately ripped (confidence 2) [07EB0893] (AR v2)
Track 10 accurately ripped (confidence 2) [C9601CE6] (AR v2)

All tracks accurately ripped

End of status report

–– CUETools DB Plugin V2.1.5

[CTDB TOCID: oG.XHlZMGe2QhLpeQBV3lfDkTl0-] found
Submit result: oG.XHlZMGe2QhLpeQBV3lfDkTl0- has been confirmed
Track | CTDB Status
1 | (1/1) Accurately ripped
2 | (1/1) Accurately ripped
3 | (1/1) Accurately ripped
4 | (1/1) Accurately ripped
5 | (1/1) Accurately ripped
6 | (1/1) Accurately ripped
7 | (1/1) Accurately ripped
8 | (1/1) Accurately ripped
9 | (1/1) Accurately ripped
10 | (1/1) Accurately ripped

==== Log checksum B7763D90317FC17F21C6D5359A7710295FDDB4FF69E90957CBD8CDD32C8E18A4 ====

Many thanks to the original uploader: bvstudio

RELATED Releases:
Andy Gibb 1977 Flowing Rivers [Reissue 1991]
Andy Gibb 1977 Flowing Rivers [Japanese Ed. 2013]
Andy Gibb 1978 Shadow Dancing [Japanese Ed. 2013]
Andy Gibb 1980 After Dark [Japanese Ed. 2013]

Barry Gibb 1988 Hawks – Music From The Original Soundtrack [Japan 1st Press, 1989]
Barry Gibb 2016 In The Now [Japan 1st Press, Blu-spec CD2]

Bee Gees 1968 Horizontal [Japanese Ed. 1992]
Bee Gees 1968 Idea [Japanese Ed. 1992]
Bee Gees 1969 Odessa [Japanese Ed. 1992]
Bee Gees 1979 Spirits Having Flown [Japanese Ed. 1993]
Bee Gees 1987 E.S.P. [Japan 1st Press]
Bee Gees 1990 Live! One For All (The Very Best Of Bee Gees) [DVD]
Bee Gees 1991 High Civilization [Japan 1st Press]
Bee Gees 1993 Size Isn’t Everything [Japan 1st Press]
Bee Gees 1997 Still Waters [Japan 1st Press, Promo]
Bee Gees 2001 This Is Where Came In [HDCD, Japan 1st Press, Promo]
Bee Gees 2009 The Ultimate Bee Gees [Japanese Ed.] 2CD
Bee Gees 2010 Seventies Collection 1971-1975 [DVD]

Robin Gibb 1983 How Old Are You? [Reissue 1992]
Robin Gibb 2014 50 St. Catherine’s Drive [Digipak]

Bee Gees – Spirits Having Flown (1979) [US 1st Press, 1985] Download, Warez, DDL, Free, Full Album, Torrent, Legal.

Download