Beastie Boys – Some Old Bullshit (1994) {Grand Royal}

Download
Beastie Boys - Some Old Bullshit (1994) {Grand Royal}

Beastie Boys – Some Old Bullshit (1994) {Grand Royal}
EAC Rip | FLAC with CUE and log | scans | 190 mb
MP3 CBR 320kbps | RAR | 73 mb
Genre: indie rock, hardcore, punk, hip-hop, rap

Some Old Bullshit is a 1994 compilation album by the Beastie Boys. Released around the same time they released a new album called Ill Communication, Some Old Bullshit consists of their old bullshit, specifically their debut EP when they were a hardcore punk band, their transformation to hip-hop when they released the single "Cooky Pus" as the group found themselves evolving.

Beastie Boys - Some Old Bullshit (1994) {Grand Royal}

01. Egg Raid On Mojo (Demo)
02. Beastie Boys
03. Transit Cop
04. Jimi
05. Holy Snappers
06. Riot Fight
07. Ode To. . .
08. Michelle’s Farm
09. Egg Raid On Mojo
10. Transit Cop (Demo)
11. Cooky Puss
12. Bonus Batter
13. Beastie Revolution
14. Cooky Puss (Censored Version)

Beastie Boys - Some Old Bullshit (1994) {Grand Royal}

Kate Shellenbach-drums, backing vocals, washboard
Adam Yauch-bass, backing vocals, acoustic guitar
John Berry-guitar
Michael Diamond-lead vocals, cowbell

Tracks 1-10 produced by Beastie Boys & Scott Jarvis
Engineered by Scott Jarvis
Recorded at 171A Studio

Tracks 11-14 produced by Dug Pomeroy & Beastie Boys
Engineered by Dug Pomeroy

EAC Log
Exact Audio Copy V1.1 from 23. June 2015

EAC extraction logfile from 30. January 2017, 8:48

Beastie Boys / Some Old Bullshit

Used drive : TEAC DVD-ROM DV-28SW Adapter: 1 ID: 0

Read mode : Secure
Utilize accurate stream : Yes
Defeat audio cache : Yes
Make use of C2 pointers : No

Read offset correction : 6
Overread into Lead-In and Lead-Out : No
Fill up missing offset samples with silence : Yes
Delete leading and trailing silent blocks : No
Null samples used in CRC calculations : Yes
Used interface : Native Win32 interface for Win NT & 2000
Gap handling : Appended to previous track

Used output format : Internal WAV Routines
Sample format : 44.100 Hz; 16 Bit; Stereo

TOC of the extracted CD

Track | Start | Length | Start sector | End sector
––––––––––––––––––––––––––––-
1 | 0:00.32 | 1:41.35 | 32 | 7641
2 | 1:41.67 | 0:56.28 | 7642 | 11869
3 | 2:38.20 | 1:18.10 | 11870 | 17729
4 | 3:56.30 | 2:06.17 | 17730 | 27196
5 | 6:02.47 | 1:22.25 | 27197 | 33371
6 | 7:24.72 | 0:30.23 | 33372 | 35644
7 | 7:55.20 | 1:33.32 | 35645 | 42651
8 | 9:28.52 | 1:38.65 | 42652 | 50066
9 | 11:07.42 | 1:20.15 | 50067 | 56081
10 | 12:27.57 | 1:21.65 | 56082 | 62221
11 | 13:49.47 | 3:19.48 | 62222 | 77194
12 | 17:09.20 | 2:21.27 | 77195 | 87796
13 | 19:30.47 | 5:09.60 | 87797 | 111031
14 | 24:40.32 | 3:20.53 | 111032 | 126084

Track 1

Filename C:My DocumentsMy FLACBeastie Boys – Some Old Bullshit (1994) [FLAC] {Grand Royal}1 – Egg Raid On Mojo (Demo).wav

Pre-gap length 0:00:02.32

Peak level 93.2 %
Extraction speed 2.2 X
Track quality 100.0 %
Test CRC 3B4CAE4D
Copy CRC 3B4CAE4D
Accurately ripped (confidence 31) [68F04BBA] (AR v2)
Copy OK

Track 2

Filename C:My DocumentsMy FLACBeastie Boys – Some Old Bullshit (1994) [FLAC] {Grand Royal}2 – Beastie Boys.wav

Peak level 94.0 %
Extraction speed 1.9 X
Track quality 100.0 %
Test CRC 3A6D97D3
Copy CRC 3A6D97D3
Accurately ripped (confidence 30) [9EA5118C] (AR v2)
Copy OK

Track 3

Filename C:My DocumentsMy FLACBeastie Boys – Some Old Bullshit (1994) [FLAC] {Grand Royal}3 – Transit Cop.wav

Pre-gap length 0:00:00.49

Peak level 94.1 %
Extraction speed 2.1 X
Track quality 100.0 %
Test CRC 033E819B
Copy CRC 033E819B
Accurately ripped (confidence 30) [1F4210DC] (AR v2)
Copy OK

Track 4

Filename C:My DocumentsMy FLACBeastie Boys – Some Old Bullshit (1994) [FLAC] {Grand Royal}4 – Jimi.wav

Pre-gap length 0:00:00.36

Peak level 93.3 %
Extraction speed 2.6 X
Track quality 100.0 %
Test CRC B8C1C83D
Copy CRC B8C1C83D
Accurately ripped (confidence 31) [96B22EBA] (AR v2)
Copy OK

Track 5

Filename C:My DocumentsMy FLACBeastie Boys – Some Old Bullshit (1994) [FLAC] {Grand Royal}5 – Holy Snappers.wav

Pre-gap length 0:00:00.63

Peak level 92.3 %
Extraction speed 1.7 X
Track quality 99.8 %
Test CRC 87C55C27
Copy CRC 87C55C27
Accurately ripped (confidence 31) [3192667D] (AR v2)
Copy OK

Track 6

Filename C:My DocumentsMy FLACBeastie Boys – Some Old Bullshit (1994) [FLAC] {Grand Royal}6 – Riot Fight.wav

Pre-gap length 0:00:00.56

Peak level 94.0 %
Extraction speed 1.2 X
Track quality 100.0 %
Test CRC D26E3EEA
Copy CRC D26E3EEA
Accurately ripped (confidence 31) [A4115128] (AR v2)
Copy OK

Track 7

Filename C:My DocumentsMy FLACBeastie Boys – Some Old Bullshit (1994) [FLAC] {Grand Royal}7 – Ode To….wav

Pre-gap length 0:00:00.41

Peak level 94.1 %
Extraction speed 2.5 X
Track quality 100.0 %
Test CRC C6ED2980
Copy CRC C6ED2980
Accurately ripped (confidence 31) [0DCC01A0] (AR v2)
Copy OK

Track 8

Filename C:My DocumentsMy FLACBeastie Boys – Some Old Bullshit (1994) [FLAC] {Grand Royal}8 – Michelle’s Farm.wav

Pre-gap length 0:00:00.43

Peak level 93.9 %
Extraction speed 2.4 X
Track quality 100.0 %
Test CRC 0551710F
Copy CRC 0551710F
Accurately ripped (confidence 31) [545FA129] (AR v2)
Copy OK

Track 9

Filename C:My DocumentsMy FLACBeastie Boys – Some Old Bullshit (1994) [FLAC] {Grand Royal}9 – Egg Raid On Mojo.wav

Pre-gap length 0:00:00.68

Peak level 94.2 %
Extraction speed 1.7 X
Track quality 100.0 %
Test CRC 51A33837
Copy CRC 51A33837
Accurately ripped (confidence 31) [664D2424] (AR v2)
Copy OK

Track 10

Filename C:My DocumentsMy FLACBeastie Boys – Some Old Bullshit (1994) [FLAC] {Grand Royal}10 – Transit Cop (Demo).wav

Pre-gap length 0:00:00.01

Peak level 92.8 %
Extraction speed 2.5 X
Track quality 100.0 %
Test CRC 52DDE9BE
Copy CRC 52DDE9BE
Accurately ripped (confidence 31) [54AA84D1] (AR v2)
Copy OK

Track 11

Filename C:My DocumentsMy FLACBeastie Boys – Some Old Bullshit (1994) [FLAC] {Grand Royal}11 – Cooky Puss.wav

Pre-gap length 0:00:00.18

Peak level 99.1 %
Extraction speed 3.2 X
Track quality 100.0 %
Test CRC 382F93C7
Copy CRC 382F93C7
Accurately ripped (confidence 32) [A834B49E] (AR v2)
Copy OK

Track 12

Filename C:My DocumentsMy FLACBeastie Boys – Some Old Bullshit (1994) [FLAC] {Grand Royal}12 – Bonus Batter.wav

Pre-gap length 0:00:00.01

Peak level 99.8 %
Extraction speed 3.0 X
Track quality 100.0 %
Test CRC 386F1FB5
Copy CRC 386F1FB5
Accurately ripped (confidence 32) [70FE741D] (AR v2)
Copy OK

Track 13

Filename C:My DocumentsMy FLACBeastie Boys – Some Old Bullshit (1994) [FLAC] {Grand Royal}13 – Beastie Revolution.wav

Pre-gap length 0:00:00.01

Peak level 98.4 %
Extraction speed 3.9 X
Track quality 100.0 %
Test CRC D537DFB8
Copy CRC D537DFB8
Accurately ripped (confidence 31) [E27D3B1E] (AR v2)
Copy OK

Track 14

Filename C:My DocumentsMy FLACBeastie Boys – Some Old Bullshit (1994) [FLAC] {Grand Royal}14 – Cooky Puss (Censored Version).wav

Pre-gap length 0:00:00.56

Peak level 95.2 %
Extraction speed 4.0 X
Track quality 100.0 %
Test CRC CA4002CA
Copy CRC CA4002CA
Accurately ripped (confidence 31) [06941045] (AR v2)
Copy OK

All tracks accurately ripped

No errors occurred

End of status report

–– CUETools DB Plugin V2.1.6

[CTDB TOCID: GH0yHfCKQZ9.LjE9GX_8Xc1Szy8-] found
Submit result: GH0yHfCKQZ9.LjE9GX_8Xc1Szy8- has been confirmed
Track | CTDB Status
1 | (52/53) Accurately ripped
2 | (53/53) Accurately ripped
3 | (51/53) Accurately ripped
4 | (53/53) Accurately ripped
5 | (53/53) Accurately ripped
6 | (53/53) Accurately ripped
7 | (52/53) Accurately ripped
8 | (52/53) Accurately ripped
9 | (53/53) Accurately ripped
10 | (53/53) Accurately ripped
11 | (53/53) Accurately ripped
12 | (53/53) Accurately ripped
13 | (53/53) Accurately ripped
14 | (53/53) Accurately ripped

==== Log checksum E896F053519F3D35B6395294A479A007F0FCCFF2DF1DE5C7C86B8EF4B0596662 ====

Here are older Beastie Boys discs I’ve upped:
Check Your Head CD5’s (1992)
Sabotage/Get It Together (US CD5) (1994)
Sure Shot (US CD5) (1994)
Intergalactic (EU CD single) (1998)
Body Movin’ (UK CD5 1 & 2) (1998)
Remote Control (CD5’s) (1999)
Alive (UK CD5’s) (1999)

Beastie Boys – Another Dimension (1998 bootleg)
Nessie’s Revenge (1999 bootleg)
Aloha Ugly (1999 bootleg)
Reverb (Tibetan Freedom Concert) (1999 bootleg)
1999-05-07 Wembley Arena. London, En (1999 bootleg)

Beastie Boys - Some Old Bullshit (1994) {Grand Royal}

Beastie Boys – Some Old Bullshit (1994) {Grand Royal} Download, Warez, DDL, Free, Full Album, Torrent, Legal.

Download