Beastie Boys – Frozen Metal Head (EP) (1992) {Grand Royal}

Download
Beastie Boys - Frozen Metal Head (EP) (1992) {Grand Royal}

Beastie Boys – Frozen Metal Head (EP) (1992) {Grand Royal}
EAC Rip | FLAC with CUE and log | scans | 93 mb
MP3 CBR 320kbps | RAR | 33 mb
Genre: hip-hop, rap, alternative, hardcore

Frozen Metal Head is a 1992 sampler EP CD by the Beastie Boys. It was released in support of their new album, Check Your Head and features a few songs from the disc plus a song from Paul’s Boutique.

Beastie Boys - Frozen Metal Head (EP) (1992) {Grand Royal}

1, Gratitude
2. Time For Livin’
3. Looking Down The Barrel of A Gun
4. So What’cha Want
5. Stand Together

EAC Log
Exact Audio Copy V1.1 from 23. June 2015

EAC extraction logfile from 30. January 2017, 9:15

Beastie Boys / Frozen Metal Head (EP)

Used drive : TEAC DVD-ROM DV-28SW Adapter: 1 ID: 0

Read mode : Secure
Utilize accurate stream : Yes
Defeat audio cache : Yes
Make use of C2 pointers : No

Read offset correction : 6
Overread into Lead-In and Lead-Out : No
Fill up missing offset samples with silence : Yes
Delete leading and trailing silent blocks : No
Null samples used in CRC calculations : Yes
Used interface : Native Win32 interface for Win NT & 2000
Gap handling : Appended to previous track

Used output format : Internal WAV Routines
Sample format : 44.100 Hz; 16 Bit; Stereo

TOC of the extracted CD

Track | Start | Length | Start sector | End sector
––––––––––––––––––––––––––––-
1 | 0:00.32 | 2:47.10 | 32 | 12566
2 | 2:47.42 | 1:50.50 | 12567 | 20866
3 | 4:38.17 | 3:30.38 | 20867 | 36654
4 | 8:08.55 | 3:39.02 | 36655 | 53081
5 | 11:47.57 | 2:48.05 | 53082 | 65686

Track 1

Filename C:My DocumentsMy FLACBeastie Boys – Frozen Metal Head (EP) (1992) [FLAC] {Grand Royal}1 – Gratitude.wav

Pre-gap length 0:00:02.32

Peak level 99.1 %
Extraction speed 1.1 X
Track quality 100.0 %
Test CRC 56A7EEDE
Copy CRC 56A7EEDE
Accurately ripped (confidence 1) [60BD090C] (AR v2)
Copy OK

Track 2

Filename C:My DocumentsMy FLACBeastie Boys – Frozen Metal Head (EP) (1992) [FLAC] {Grand Royal}2 – Time For Livin’.wav

Pre-gap length 0:00:01.52

Peak level 99.1 %
Extraction speed 1.1 X
Track quality 100.0 %
Test CRC FFB47A4B
Copy CRC FFB47A4B
Accurately ripped (confidence 1) [EBCC8812] (AR v2)
Copy OK

Track 3

Filename C:My DocumentsMy FLACBeastie Boys – Frozen Metal Head (EP) (1992) [FLAC] {Grand Royal}3 – Looking Down The Barrel Of A Gun.wav

Pre-gap length 0:00:01.50

Peak level 100.0 %
Extraction speed 1.1 X
Track quality 99.9 %
Test CRC 3C46AD59
Copy CRC 3C46AD59
Accurately ripped (confidence 1) [FCB700A3] (AR v2)
Copy OK

Track 4

Filename C:My DocumentsMy FLACBeastie Boys – Frozen Metal Head (EP) (1992) [FLAC] {Grand Royal}4 – So What’cha Want.wav

Pre-gap length 0:00:03.23

Peak level 88.3 %
Extraction speed 1.4 X
Track quality 100.0 %
Test CRC 6CB20A8E
Copy CRC 6CB20A8E
Accurately ripped (confidence 1) [1D7F4507] (AR v2)
Copy OK

Track 5

Filename C:My DocumentsMy FLACBeastie Boys – Frozen Metal Head (EP) (1992) [FLAC] {Grand Royal}5 – Stand Together.wav

Pre-gap length 0:00:01.50

Peak level 99.1 %
Extraction speed 1.4 X
Track quality 100.0 %
Test CRC AFBA35D5
Copy CRC AFBA35D5
Accurately ripped (confidence 1) [94EB5A47] (AR v2)
Copy OK

All tracks accurately ripped

No errors occurred

End of status report

–– CUETools DB Plugin V2.1.6

[CTDB TOCID: ZEVfcTs17Am.ZeITotBT_xHhULw-] disk not present in database
Submit result: ZEVfcTs17Am.ZeITotBT_xHhULw- has been uploaded

==== Log checksum 35AE2BB478D6CABD9CAD1B788C695D10AEA12A9AAD66CD40601FF0AD16D6B4D5 ====

Here are older Beastie Boys discs I’ve upped:
Check Your Head CD5’s (1992)
Sabotage/Get It Together (US CD5) (1994)
Sure Shot (US CD5) (1994)
Intergalactic (EU CD single) (1998)
Body Movin’ (UK CD5 1 & 2) (1998)
Remote Control (CD5’s) (1999)
Alive (UK CD5’s) (1999)

Beastie Boys – Another Dimension (1998 bootleg)
Nessie’s Revenge (1999 bootleg)
Aloha Ugly (1999 bootleg)
Reverb (Tibetan Freedom Concert) (1999 bootleg)
1999-05-07 Wembley Arena. London, En (1999 bootleg)

Beastie Boys - Frozen Metal Head (EP) (1992) {Grand Royal}

Beastie Boys – Frozen Metal Head (EP) (1992) {Grand Royal} Download, Warez, DDL, Free, Full Album, Torrent, Legal.

Download