Beastie Boys – Aglio E Olio (EP) (1995) {Grand Royal}

Download
Beastie Boys - Aglio E Olio (EP) (1995) {Grand Royal}

MBeastie Boys – Aglio E Olio (EP) (1995) {Grand Royal}
EAC Rip | FLAC with CUE and log | scans | 76 mb
MP3 CBR 320kbps | RAR | 26 mb
Genre: hardcore punk

Aglio E Olio is an 8-song EP by the Beastie Boys. Released a year after Ill Communication, this was the band’s first full return to hardcore punk and features friend AWOL on drums. This was released on their own Grand Royal label.

Beastie Boys - Aglio E Olio (EP) (1995) {Grand Royal}

1. Brand New
2. Deal With It
3. Believe Me
4. Nervous Assistant
5. Square Wave In Unison
6. You Catch A Bad One
7. I Can’t Think Straight
8. I Want Some

Mike D.-vocals
Ad Rock-guitar
MCA-bass
AWOL-drums

Engineered by Mario Caldato, Jr.
Mastered by Wally Traugott

EAC Log
Exact Audio Copy V1.1 from 23. June 2015

EAC extraction logfile from 30. January 2017, 9:35

Beastie Boys / Aglio E Olio (EP)

Used drive : TEAC DVD-ROM DV-28SW Adapter: 1 ID: 0

Read mode : Secure
Utilize accurate stream : Yes
Defeat audio cache : Yes
Make use of C2 pointers : No

Read offset correction : 6
Overread into Lead-In and Lead-Out : No
Fill up missing offset samples with silence : Yes
Delete leading and trailing silent blocks : No
Null samples used in CRC calculations : Yes
Used interface : Native Win32 interface for Win NT & 2000
Gap handling : Appended to previous track

Used output format : Internal WAV Routines
Sample format : 44.100 Hz; 16 Bit; Stereo

TOC of the extracted CD

Track | Start | Length | Start sector | End sector
––––––––––––––––––––––––––––-
1 | 0:00.00 | 1:23.50 | 0 | 6274
2 | 1:23.50 | 1:58.05 | 6275 | 15129
3 | 3:21.55 | 1:19.17 | 15130 | 21071
4 | 4:40.72 | 0:42.65 | 21072 | 24286
5 | 5:23.62 | 1:01.70 | 24287 | 28931
6 | 6:25.57 | 1:20.63 | 28932 | 34994
7 | 7:46.45 | 1:18.62 | 34995 | 40906
8 | 9:05.32 | 2:02.23 | 40907 | 50079

Track 1

Filename C:My DocumentsMy FLACBeastie Boys – Aglio E Olio (EP) (1995) [FLAC] {Grand Royal}1 – Brand New.wav

Pre-gap length 0:00:02.00

Peak level 99.9 %
Extraction speed 1.4 X
Track quality 99.8 %
Test CRC DEBB3DE3
Copy CRC DEBB3DE3
Accurately ripped (confidence 21) [C1361373] (AR v2)
Copy OK

Track 2

Filename C:My DocumentsMy FLACBeastie Boys – Aglio E Olio (EP) (1995) [FLAC] {Grand Royal}2 – Deal With It.wav

Peak level 99.9 %
Extraction speed 2.0 X
Track quality 100.0 %
Test CRC 1E2D786A
Copy CRC 1E2D786A
Accurately ripped (confidence 21) [C9CD138E] (AR v2)
Copy OK

Track 3

Filename C:My DocumentsMy FLACBeastie Boys – Aglio E Olio (EP) (1995) [FLAC] {Grand Royal}3 – Believe Me.wav

Peak level 99.9 %
Extraction speed 2.1 X
Track quality 100.0 %
Test CRC 0E11FB7C
Copy CRC 0E11FB7C
Accurately ripped (confidence 21) [21F04DFA] (AR v2)
Copy OK

Track 4

Filename C:My DocumentsMy FLACBeastie Boys – Aglio E Olio (EP) (1995) [FLAC] {Grand Royal}4 – Nervous Assistant.wav

Peak level 99.9 %
Extraction speed 1.7 X
Track quality 100.0 %
Test CRC 018FF365
Copy CRC 018FF365
Accurately ripped (confidence 21) [E377D7C1] (AR v2)
Copy OK

Track 5

Filename C:My DocumentsMy FLACBeastie Boys – Aglio E Olio (EP) (1995) [FLAC] {Grand Royal}5 – Square Wave In Unison.wav

Peak level 99.9 %
Extraction speed 1.9 X
Track quality 100.0 %
Test CRC E6E1BFB5
Copy CRC E6E1BFB5
Accurately ripped (confidence 21) [DB2DA076] (AR v2)
Copy OK

Track 6

Filename C:My DocumentsMy FLACBeastie Boys – Aglio E Olio (EP) (1995) [FLAC] {Grand Royal}6 – You Catch A Bad One.wav

Peak level 99.9 %
Extraction speed 2.2 X
Track quality 100.0 %
Test CRC BA9A9AD6
Copy CRC BA9A9AD6
Accurately ripped (confidence 21) [33ED7E29] (AR v2)
Copy OK

Track 7

Filename C:My DocumentsMy FLACBeastie Boys – Aglio E Olio (EP) (1995) [FLAC] {Grand Royal}7 – I Can’t Think Straight.wav

Peak level 100.0 %
Extraction speed 2.2 X
Track quality 100.0 %
Test CRC EEC74143
Copy CRC EEC74143
Accurately ripped (confidence 21) [B83B0BA2] (AR v2)
Copy OK

Track 8

Filename C:My DocumentsMy FLACBeastie Boys – Aglio E Olio (EP) (1995) [FLAC] {Grand Royal}8 – I Want Some.wav

Peak level 97.7 %
Extraction speed 2.6 X
Track quality 100.0 %
Test CRC A1FD77D7
Copy CRC A1FD77D7
Accurately ripped (confidence 21) [5546E245] (AR v2)
Copy OK

All tracks accurately ripped

No errors occurred

End of status report

–– CUETools DB Plugin V2.1.6

[CTDB TOCID: kakjkX023TD7._jJP_5NWeZVI2M-] found
Submit result: kakjkX023TD7._jJP_5NWeZVI2M- has been confirmed
Track | CTDB Status
1 | (60/60) Accurately ripped
2 | (60/60) Accurately ripped
3 | (60/60) Accurately ripped
4 | (60/60) Accurately ripped
5 | (60/60) Accurately ripped
6 | (60/60) Accurately ripped
7 | (60/60) Accurately ripped
8 | (60/60) Accurately ripped

==== Log checksum 43F3377838F8E016ACA07F0F6705BB19A2D68975307F18AC9E90D372F0547E14 ====

Here are older Beastie Boys discs I’ve upped:
Check Your Head CD5’s (1992)
Sabotage/Get It Together (US CD5) (1994)
Sure Shot (US CD5) (1994)
Intergalactic (EU CD single) (1998)
Body Movin’ (UK CD5 1 & 2) (1998)
Remote Control (CD5’s) (1999)
Alive (UK CD5’s) (1999)

Beastie Boys – Another Dimension (1998 bootleg)
Nessie’s Revenge (1999 bootleg)
Aloha Ugly (1999 bootleg)
Reverb (Tibetan Freedom Concert) (1999 bootleg)
1999-05-07 Wembley Arena. London, En (1999 bootleg)

Beastie Boys - Aglio E Olio (EP) (1995) {Grand Royal}

Beastie Boys – Aglio E Olio (EP) (1995) {Grand Royal} Download, Warez, DDL, Free, Full Album, Torrent, Legal.

Download