Barracuda Triangle – Electro Shock Therapy (2014) | ViralVideoPk

Daily Dose of Free Downloads

Barracuda Triangle – Electro Shock Therapy (2014)

Download

Barracuda Triangle - Electro Shock Therapy (2014)

Barracuda Triangle – Electro Shock Therapy (2014)
EAC Rip | FLAC (tracks+.cue+log) – 374 MB | MP3 CBR 320 kbps (LAME 3.93) – 143 MB | Covers – 85 MB
Genre: Instrumental Progressive Rock | RAR 3% Rec. | Label: Reingold Records (RRCD012)

Barracuda Triangle is a side project of three members from The Flower Kings: Tomas Bodin on keyboards, Jonas Reingold on bass/guitars and Felix Lehrmann on drums. Their debut "Electro Shock Therapy" (2014) is an instrumental album which demonstrates how talented and what amazing players they all are. The music is an eclectic mix of heavy prog, symphonic and fusion while still keeping it fairly progressive other than just going on improvising forever, there are many different ideas going through all kinds of moods, every song seems to explore different territories while still everything falls under the umbrella of heavy fusion, the music is dramatic, dark, soft, raw and unexpected with some King Crimson inspired moments. It is actually quite different from The Flower Kings although sometimes it sounds a bit like Karmakanic which is another TFK related band. The playing is of course top notch and should please proggers from all different genres.

Progarchives

Tracklist:
01. Black Days
02. Tumoro
03. Acid Rain
04. Caressing The Moment In Tranquilized Ecstasy
05. Tears In Blue Rain
06. Electro Shock
07. Too Much Therapy
08. Strom
09. The Last One

Total time: 01:00:43

EAC log
Exact Audio Copy V1.0 beta 3 from 29. August 2011

EAC extraction logfile from 13. October 2015, 19:15

Barracuda Triangle / Electro Shock Therapy

Used drive : Optiarc DVD RW AD-7560A Adapter: 0 ID: 0

Read mode : Secure
Utilize accurate stream : Yes
Defeat audio cache : Yes
Make use of C2 pointers : No

Read offset correction : 6
Overread into Lead-In and Lead-Out : No
Fill up missing offset samples with silence : Yes
Delete leading and trailing silent blocks : No
Null samples used in CRC calculations : Yes
Used interface : Native Win32 interface for Win NT & 2000
Gap handling : Appended to previous track

Used output format : User Defined Encoder
Selected bitrate : 1024 kBit/s
Quality : High
Add ID3 tag : No
Command line compressor : C:Program FilesExact Audio CopyFlacflac.exe
Additional command line options : -V -8 -T "Genre=%genre%" -T "Artist=%artist%" -T "Title=%title%" -T "Album=%albumtitle%" -T "Date=%year%" -T "Tracknumber=%tracknr%" -T "Comment=%comment%" %source%

TOC of the extracted CD

Track | Start | Length | Start sector | End sector
––––––––––––––––––––––––––––-
1 | 0:00.00 | 5:03.28 | 0 | 22752
2 | 5:03.28 | 6:03.64 | 22753 | 50041
3 | 11:07.17 | 7:15.01 | 50042 | 82667
4 | 18:22.18 | 8:23.33 | 82668 | 120425
5 | 26:45.51 | 3:17.26 | 120426 | 135226
6 | 30:03.02 | 8:27.58 | 135227 | 173309
7 | 38:30.60 | 8:53.22 | 173310 | 213306
8 | 47:24.07 | 7:34.69 | 213307 | 247425
9 | 54:59.01 | 5:43.55 | 247426 | 273205

Track 1

Filename D:VeushkaBarracuda Triangle – Electro Shock Therapy 20141. Black Days.wav

Pre-gap length 0:00:02.00

Peak level 98.8 %
Extraction speed 2.7 X
Track quality 100.0 %
Test CRC 375411E2
Copy CRC 375411E2
Accurately ripped (confidence 5) [F50D8FE3] (AR v2)
Copy OK

Track 2

Filename D:VeushkaBarracuda Triangle – Electro Shock Therapy 20142. Tumoro.wav

Peak level 98.8 %
Extraction speed 2.9 X
Track quality 99.9 %
Test CRC FA6D49DC
Copy CRC FA6D49DC
Accurately ripped (confidence 5) [E4F0433D] (AR v2)
Copy OK

Track 3

Filename D:VeushkaBarracuda Triangle – Electro Shock Therapy 20143. Acid Rain.wav

Peak level 98.8 %
Extraction speed 3.7 X
Track quality 100.0 %
Test CRC E861EC19
Copy CRC E861EC19
Accurately ripped (confidence 5) [80C41C11] (AR v2)
Copy OK

Track 4

Filename D:VeushkaBarracuda Triangle – Electro Shock Therapy 20144. Caressing The Moment In Tranquilized Ecstasy.wav

Pre-gap length 0:00:00.01

Peak level 98.8 %
Extraction speed 4.2 X
Track quality 100.0 %
Test CRC BBD4A05D
Copy CRC BBD4A05D
Accurately ripped (confidence 5) [FED290BA] (AR v2)
Copy OK

Track 5

Filename D:VeushkaBarracuda Triangle – Electro Shock Therapy 20145. Tears In Blue Rain.wav

Peak level 52.7 %
Extraction speed 4.1 X
Track quality 100.0 %
Test CRC 6D4F871A
Copy CRC 6D4F871A
Accurately ripped (confidence 5) [E7215522] (AR v2)
Copy OK

Track 6

Filename D:VeushkaBarracuda Triangle – Electro Shock Therapy 20146. Electro Shock.wav

Peak level 98.8 %
Extraction speed 4.8 X
Track quality 100.0 %
Test CRC B3FE08BD
Copy CRC B3FE08BD
Accurately ripped (confidence 5) [5D636F41] (AR v2)
Copy OK

Track 7

Filename D:VeushkaBarracuda Triangle – Electro Shock Therapy 20147. Too Much Therapy.wav

Peak level 98.8 %
Extraction speed 5.2 X
Track quality 100.0 %
Test CRC 6B62D96D
Copy CRC 6B62D96D
Accurately ripped (confidence 5) [9FCFF7F0] (AR v2)
Copy OK

Track 8

Filename D:VeushkaBarracuda Triangle – Electro Shock Therapy 20148. Strom.wav

Peak level 98.8 %
Extraction speed 5.5 X
Track quality 100.0 %
Test CRC 4FCEA238
Copy CRC 4FCEA238
Accurately ripped (confidence 5) [67AAF6B5] (AR v2)
Copy OK

Track 9

Filename D:VeushkaBarracuda Triangle – Electro Shock Therapy 20149. The Last One.wav

Peak level 98.8 %
Extraction speed 5.6 X
Track quality 100.0 %
Test CRC CE20B554
Copy CRC CE20B554
Accurately ripped (confidence 5) [847AAD4F] (AR v2)
Copy OK

All tracks accurately ripped

No errors occurred

End of status report

–– CUETools DB Plugin V2.1.3

[CTDB TOCID: NzcaaFGG480KWyPjk2yKTf2YJMI-] found, Submit result: NzcaaFGG480KWyPjk2yKTf2YJMI- has been confirmed
[b0bc2a1a] (2/2) Accurately ripped

==== Log checksum C8A70C5B2A88F6C54EB094ED36FE71FF7D64EA1F41CCD0357E931531BB2084C6 ====

CUETools log
[CUETools log; Date: 10.01.2017 19:40:23; Version: 2.1.4]
[CTDB TOCID: NzcaaFGG480KWyPjk2yKTf2YJMI-] found.
Track | CTDB Status
1 | (6/6) Accurately ripped
2 | (6/6) Accurately ripped
3 | (6/6) Accurately ripped
4 | (6/6) Accurately ripped
5 | (6/6) Accurately ripped
6 | (6/6) Accurately ripped
7 | (6/6) Accurately ripped
8 | (6/6) Accurately ripped
9 | (6/6) Accurately ripped
[AccurateRip ID: 00141ddd-0095d0cd-640e3a09] found.
Track [ CRC | V2 ] Status
01 [973d44f9|f50d8fe3] (0+5/5) Accurately ripped
02 [a8b3c64a|e4f0433d] (0+5/5) Accurately ripped
03 [011cd6f9|80c41c11] (0+5/5) Accurately ripped
04 [cb319526|fed290ba] (0+5/5) Accurately ripped
05 [e4e8611f|e7215522] (0+5/5) Accurately ripped
06 [5873603a|5d636f41] (0+5/5) Accurately ripped
07 [3576ecde|9fcff7f0] (0+5/5) Accurately ripped
08 [b844bf16|67aaf6b5] (0+5/5) Accurately ripped
09 [c0fc6ab8|847aad4f] (0+5/5) Accurately ripped

Track Peak [ CRC32 ] [W/O NULL] [ LOG ]
– 98,8 [5CB1AA5C] [7E1B6598]
01 98,8 [375411E2] [C3E1F2E8] CRC32
02 98,8 [FA6D49DC] [DA8B8AAB] CRC32
03 98,8 [E861EC19] [6AD22D1B] CRC32
04 98,8 [BBD4A05D] [C58470F0] CRC32
05 52,7 [6D4F871A] [60245A81] CRC32
06 98,8 [B3FE08BD] [01E22408] CRC32
07 98,8 [6B62D96D] [FEF06890] CRC32
08 98,8 [4FCEA238] [962542C9] CRC32
09 98,8 [CE20B554] [BCF49E0B] CRC32

Thanks to veushka

Welcome to My Blog!

Barracuda Triangle – Electro Shock Therapy (2014) Download, Warez, DDL, Free, Full Album, Torrent, Legal.

Download


  • Recent Posts

  • Recent Tags