Barefoot Jerry – 'Southern Delight' (1971) + 'Barefoot Jerry' (1972) 2 LP in 1CD, 1997 [Re-Up]

Download
Barefoot Jerry - 'Southern Delight' (1971) + 'Barefoot Jerry' (1972) 2 LP in 1CD, 1997 [Re-Up]

Barefoot Jerry – ‘Southern Delight’ (1971) + ‘Barefoot Jerry’ (1972) [2LP in 1CD, 1997]
EAC | FLAC | Tracks (Cue&Log) ~ 453 Mb | Mp3 (CBR320) ~ 177 Mb | Scans ~ 61 Mb
Southern Rock, Country Rock | Label: See For Miles | # SEECD 485 | 01:17:09

The impeccable steel guitar sound of the great Russ Hicks is the driving force behind Barefoot Jerry, whose 1971 debut Southern Delight and self-titled 1972 follow-up make up this welcome reissue.

Review by Jason Ankeny, Allmusic.com

Barefoot Jerry remains one of the unsung heroes of southern rock. They rose from the ashes of Nashville super group Area Code 615 which featured some of Nashville’s best studio musicians and released string of successful albums between 1971 and 1977 before breaking up.

Lead by guitarist Wayne Moss, Barefoot Jerry’s original line-up also included ex- Area Code 615 members Mac Gayden on guitar and vocals, Kenneth A. Buttrey on drums along with John Harris on keyboards.

In 1971 Barefoot Jerry signed to Capitol Records and released their classic debut album, Southern Delight. Following year Capitol dropped them, but Barefoot Jerry released the self-titled sophomore effort for Warner Brothers records.

Russ Hicks and Kenny Malone had replaced Gayden and Buttrey. The band then signed to Monument records and went through further lineup changes (Si Edwards on drums, Dave Doran on bass, Fred Newell on vocals) before recording 1974’s Watchin’ TV.

In 1975 Monument released You Can’t Get Off With Your Shoes On, and Crocery, double LP featuring reissues of their first two albums came out the following year.

Wayne Moss resurrected Barefoot Jerry one more time in 1976 and the band recorded Keys to the Country with bassist Terry Bearmore, guitarist Jim Colvard and Warren Hartman keyboards. This same line-up recorded the last Barefoot Jerry album, 1977’s Barefootin’.

Barefoot Jerry has shared the stage with Wet Willie, The Charlie Daniels Band and other major players in southern rock scene, yet remain fairly unknown to this day, which might have something to do with the ever rotating members of the band. In fact, Wayne Moss was the only member who played in all of the albums and concerts.

Review by Rockasteria

Barefoot Jerry - 'Southern Delight' (1971) + 'Barefoot Jerry' (1972) 2 LP in 1CD, 1997 [Re-Up]

Barefoot Jerry at Allmusic
Barefoot Jerry Website
Barefoot Jerry at Wiki

Tracklist:

Southern Delight (1971):

01. Hospitality Song (04:48)
02. I’m Proud To Be A redneck (02:33)
03. Smokies (02:16)
04. Quit While You’re A Head (03:12)
05. Blood Is Not The Answer (05:30)
06. Come To Me Tonight (04:44)
07. Finishing Touches (04:15)
08. The Minstrel Is Free At Last (05:13)
09. Nobody Knows (01:21)
10. That’s OK, He’ll Be Your Brother Someday (04:42)

Barefoot Jerry (1972):

11. Castle Rock (04:39)
12. One Woman (02:48)
13. In God We Trust (05:27)
14. Message (03:11)
15. Friends (04:22)
16. Snuff Queen (00:55)
17. Little Maggie (03:12)
18. Warm (03:32)
19. Fish ‘N’ Tits (02:00)
20. Ain’t It Nice In Here (04:30)
21. Ebenezer (03:59)

EAC log
EAC extraction logfile from 28. February 2007, 20:53 for CD
Barefoot Jerry / Southern Delight & Barefoot Jerry

Used drive : LITE-ON DVD SOHD-16P9S Adapter: 0 ID: 1
Read mode : Secure with NO C2, accurate stream, disable cache
Read offset correction : 6
Overread into Lead-In and Lead-Out : No

Used output format : C:Program FilesFLACflac.exe (User Defined Encoder)
128 kBit/s
Additional command line options : -V -8 -T "artist=%a" -T "title=%t" -T "album=%g" -T "date=%y" -T "tracknumber=%n" -T "genre=%m" %s

Other options :
Fill up missing offset samples with silence : Yes
Delete leading and trailing silent blocks : No
Native Win32 interface for Win NT & 2000

Track 1
Filename C:Barefoot Jerry – Southern Delight & Barefoot Jerry (1971-1972) [flac]1 – Hospitality Song.wav

Pre-gap length 0:00:02.33

Peak level 88.7 %
Track quality 100.0 %
Test CRC 2B2B7574
Copy CRC 2B2B7574
Copy OK

Track 2
Filename C:Barefoot Jerry – Southern Delight & Barefoot Jerry (1971-1972) [flac]2 – I’m Proud To Be A redneck.wav

Peak level 86.0 %
Track quality 100.0 %
Test CRC C9C04BFC
Copy CRC C9C04BFC
Copy OK

Track 3
Filename C:Barefoot Jerry – Southern Delight & Barefoot Jerry (1971-1972) [flac]3 – Smokies.wav

Peak level 83.7 %
Track quality 100.0 %
Test CRC A94191ED
Copy CRC A94191ED
Copy OK

Track 4
Filename C:Barefoot Jerry – Southern Delight & Barefoot Jerry (1971-1972) [flac]4 – Quit While You’re A Head.wav

Peak level 92.4 %
Track quality 100.0 %
Test CRC 750A1B69
Copy CRC 750A1B69
Copy OK

Track 5
Filename C:Barefoot Jerry – Southern Delight & Barefoot Jerry (1971-1972) [flac]5 – Blood Is Not The Answer.wav

Peak level 98.8 %
Track quality 100.0 %
Test CRC A0B4BA8F
Copy CRC A0B4BA8F
Copy OK

Track 6
Filename C:Barefoot Jerry – Southern Delight & Barefoot Jerry (1971-1972) [flac]6 – Come To Me Tonight.wav

Peak level 94.9 %
Track quality 100.0 %
Test CRC 34DB5C28
Copy CRC 34DB5C28
Copy OK

Track 7
Filename C:Barefoot Jerry – Southern Delight & Barefoot Jerry (1971-1972) [flac]7 – Finishing Touches.wav

Peak level 98.6 %
Track quality 100.0 %
Test CRC 45C5CC5C
Copy CRC 45C5CC5C
Copy OK

Track 8
Filename C:Barefoot Jerry – Southern Delight & Barefoot Jerry (1971-1972) [flac]8 – The Minstrel Is Free At Last.wav

Peak level 91.5 %
Track quality 100.0 %
Test CRC EB6B2E4F
Copy CRC EB6B2E4F
Copy OK

Track 9
Filename C:Barefoot Jerry – Southern Delight & Barefoot Jerry (1971-1972) [flac]9 – Nobody Knows.wav

Peak level 80.5 %
Track quality 99.8 %
Test CRC BF533C41
Copy CRC BF533C41
Copy OK

Track 10
Filename C:Barefoot Jerry – Southern Delight & Barefoot Jerry (1971-1972) [flac]10 – That’s OK, He’ll Be Your Brother Someday.wav

Peak level 95.2 %
Track quality 100.0 %
Test CRC 666844B8
Copy CRC 666844B8
Copy OK

Track 11
Filename C:Barefoot Jerry – Southern Delight & Barefoot Jerry (1971-1972) [flac]11 – Castle Rock.wav

Peak level 96.9 %
Track quality 99.9 %
Test CRC B86242C3
Copy CRC B86242C3
Copy OK

Track 12
Filename C:Barefoot Jerry – Southern Delight & Barefoot Jerry (1971-1972) [flac]12 – One Woman.wav

Peak level 98.8 %
Track quality 100.0 %
Test CRC F0EDD1B6
Copy CRC F0EDD1B6
Copy OK

Track 13
Filename C:Barefoot Jerry – Southern Delight & Barefoot Jerry (1971-1972) [flac]13 – In God We Trust.wav

Peak level 97.7 %
Track quality 100.0 %
Test CRC DD2C72F9
Copy CRC DD2C72F9
Copy OK

Track 14
Filename C:Barefoot Jerry – Southern Delight & Barefoot Jerry (1971-1972) [flac]14 – Message.wav

Peak level 98.8 %
Track quality 99.9 %
Test CRC 6C18D947
Copy CRC 6C18D947
Copy OK

Track 15
Filename C:Barefoot Jerry – Southern Delight & Barefoot Jerry (1971-1972) [flac]15 – Friends.wav

Peak level 97.8 %
Track quality 100.0 %
Test CRC 5DFFA4F9
Copy CRC 5DFFA4F9
Copy OK

Track 16
Filename C:Barefoot Jerry – Southern Delight & Barefoot Jerry (1971-1972) [flac]16 – Snuff Queen.wav

Peak level 91.9 %
Track quality 100.0 %
Test CRC 91CE1620
Copy CRC 91CE1620
Copy OK

Track 17
Filename C:Barefoot Jerry – Southern Delight & Barefoot Jerry (1971-1972) [flac]17 – Little Maggie.wav

Peak level 98.8 %
Track quality 99.9 %
Test CRC BC82F44D
Copy CRC BC82F44D
Copy OK

Track 18
Filename C:Barefoot Jerry – Southern Delight & Barefoot Jerry (1971-1972) [flac]18 – Warm.wav

Peak level 89.2 %
Track quality 100.0 %
Test CRC 364D4E7D
Copy CRC 364D4E7D
Copy OK

Track 19
Filename C:Barefoot Jerry – Southern Delight & Barefoot Jerry (1971-1972) [flac]19 – Fish ‘N’ Tits.wav

Peak level 98.8 %
Track quality 99.9 %
Test CRC 32946462
Copy CRC 32946462
Copy OK

Track 20
Filename C:Barefoot Jerry – Southern Delight & Barefoot Jerry (1971-1972) [flac]20 – Ain’t It Nice In Here.wav

Peak level 91.4 %
Track quality 99.9 %
Test CRC AEEA0653
Copy CRC AEEA0653
Copy OK

Track 21
Filename C:Barefoot Jerry – Southern Delight & Barefoot Jerry (1971-1972) [flac]21 – Ebenezer.wav

Peak level 88.8 %
Track quality 99.9 %
Test CRC 742CBFDC
Copy CRC 742CBFDC
Copy OK

No errors occured

End of status report

AR log
[CUETools log; Date: 31.07.2017 21:55:37; Version: 2.1.4]
Pregap length 00:00:33.
[CTDB TOCID: ZxDxQgeDGsodzz8f4MEhKGe8UPQ-] found.
Track | CTDB Status
1 | (5/5) Accurately ripped
2 | (5/5) Accurately ripped
3 | (5/5) Accurately ripped
4 | (5/5) Accurately ripped
5 | (5/5) Accurately ripped
6 | (5/5) Accurately ripped
7 | (5/5) Accurately ripped
8 | (5/5) Accurately ripped
9 | (5/5) Accurately ripped
10 | (5/5) Accurately ripped
11 | (5/5) Accurately ripped
12 | (5/5) Accurately ripped
13 | (5/5) Accurately ripped
14 | (5/5) Accurately ripped
15 | (5/5) Accurately ripped
16 | (5/5) Accurately ripped
17 | (5/5) Accurately ripped
18 | (5/5) Accurately ripped
19 | (5/5) Accurately ripped
20 | (5/5) Accurately ripped
21 | (5/5) Accurately ripped
[AccurateRip ID: 003bfea3-039465e9-10122015] found.
Track [ CRC | V2 ] Status
01 [b8a11984|4020e288] (0+2/2) Accurately ripped
02 [a2c3883d|8accd272] (0+2/2) Accurately ripped
03 [3dfe0b2c|e06a391c] (0+2/2) Accurately ripped
04 [f50ce819|946e9d70] (0+2/2) Accurately ripped
05 [d44d8a04|f7c7e81a] (0+2/2) Accurately ripped
06 [88b9230b|efa6c608] (0+2/2) Accurately ripped
07 [013e43c7|99581b75] (0+2/2) Accurately ripped
08 [c2a28554|3c0137ac] (0+2/2) Accurately ripped
09 [9ee00e13|63119c21] (0+2/2) Accurately ripped
10 [0c080994|0fd14bad] (0+2/2) Accurately ripped
11 [b7a4efe2|c3bf8143] (0+2/2) Accurately ripped
12 [b181a2b3|f110872d] (0+2/2) Accurately ripped
13 [57c789bc|a5a67266] (0+2/2) Accurately ripped
14 [360ad303|32530a0e] (0+2/2) Accurately ripped
15 [ae76d5b5|0612eafc] (0+2/2) Accurately ripped
16 [eb022b76|b2ec592e] (0+2/2) Accurately ripped
17 [310d7982|62cc311b] (0+2/2) Accurately ripped
18 [2f92f0a9|08713914] (0+2/2) Accurately ripped
19 [d2b5ba3b|8512df1a] (0+2/2) Accurately ripped
20 [2b045f28|bdb69c39] (0+2/2) Accurately ripped
21 [20f0ecf0|a1f5cb24] (0+2/2) Accurately ripped

Track Peak [ CRC32 ] [W/O NULL] [ LOG ]
– 98,8 [4B5E70D4] [4E0C68B9]
01 88,7 [2B2B7574] [FC873661] CRC32
02 86,0 [C9C04BFC] [E3A766ED] CRC32
03 83,7 [A94191ED] [B8AD4AFD] CRC32
04 92,4 [750A1B69] [51AD8D4A] CRC32
05 98,8 [A0B4BA8F] [1B924C1B] CRC32
06 94,9 [34DB5C28] [A6A2394E] CRC32
07 98,6 [45C5CC5C] [20CFDE8B] CRC32
08 91,5 [EB6B2E4F] [BF131512] CRC32
09 80,5 [BF533C41] [09A12A51] CRC32
10 95,2 [666844B8] [0812BD5B] CRC32
11 96,9 [B86242C3] [4735E827] CRC32
12 98,8 [F0EDD1B6] [B2C44A6C] CRC32
13 97,7 [DD2C72F9] [55516EA6] CRC32
14 98,8 [6C18D947] [DB6FFDB6] CRC32
15 97,8 [5DFFA4F9] [76549B74] CRC32
16 91,9 [91CE1620] [B99C92BB] CRC32
17 98,8 [BC82F44D] [9BCB9BCF] CRC32
18 89,2 [364D4E7D] [386B3CE0] CRC32
19 98,8 [32946462] [DCB4D7F0] CRC32
20 91,4 [AEEA0653] [9D7797E6] CRC32
21 88,8 [742CBFDC] [5E6110CF] CRC32

DR log
foobar2000 1.2.1 / Dynamic Range Meter 1.1.1
log date: 2013-02-14 02:15:20

––––––––––––––––––––––––––––––––––––––––
Analyzed: Barefoot Jerry / Southern Delight & Barefoot Jerry
––––––––––––––––––––––––––––––––––––––––

DR Peak RMS Duration Track
––––––––––––––––––––––––––––––––––––––––
DR15 -1.04 dB -18.94 dB 4:49 01-Hospitality Song
DR12 -1.31 dB -15.93 dB 2:34 02-I’m Proud To Be A redneck
DR12 -1.54 dB -16.24 dB 2:16 03-Smokies
DR12 -0.69 dB -16.43 dB 3:12 04-Quit While You’re A Head
DR10 -0.10 dB -13.96 dB 5:31 05-Blood Is Not The Answer
DR13 -0.45 dB -18.89 dB 4:45 06-Come To Me Tonight
DR13 -0.12 dB -16.51 dB 4:16 07-Finishing Touches
DR13 -0.77 dB -17.40 dB 5:14 08-The Minstrel Is Free At Last
DR10 -1.88 dB -15.21 dB 1:21 09-Nobody Knows
DR11 -0.42 dB -14.53 dB 4:42 10-That’s OK, He’ll Be Your Brother Someday
DR12 -0.27 dB -15.33 dB 4:39 11-Castle Rock
DR12 -0.10 dB -14.41 dB 2:49 12-One Woman
DR13 -0.20 dB -15.94 dB 5:28 13-In God We Trust
DR12 -0.10 dB -14.47 dB 3:12 14-Message
DR13 -0.19 dB -16.90 dB 4:22 15-Friends
DR11 -0.73 dB -14.02 dB 0:56 16-Snuff Queen
DR11 -0.10 dB -14.37 dB 3:13 17-Little Maggie
DR10 -0.98 dB -14.94 dB 3:32 18-Warm
DR13 -0.10 dB -14.89 dB 2:00 19-Fish ‘N’ Tits
DR10 -0.78 dB -15.52 dB 4:30 20-Ain’t It Nice In Here
DR10 -1.03 dB -15.11 dB 3:59 21-Ebenezer
––––––––––––––––––––––––––––––––––––––––

Number of tracks: 21
Official DR value: DR12

Samplerate: 44100 Hz
Channels: 2
Bits per sample: 16
Bitrate: 868 kbps
Codec: FLAC
================================================================================

Barefoot Jerry - 'Southern Delight' (1971) + 'Barefoot Jerry' (1972) 2 LP in 1CD, 1997 [Re-Up]

Barefoot Jerry - 'Southern Delight' (1971) + 'Barefoot Jerry' (1972) 2 LP in 1CD, 1997 [Re-Up]

All thanks to original releaser

More interesting music in My Blog

Barefoot Jerry – 'Southern Delight' (1971) + 'Barefoot Jerry' (1972) 2 LP in 1CD, 1997 [Re-Up] Download, Warez, DDL, Free, Full Album, Torrent, Legal.

Download