Bardo State – Mariposa (2008)

Download
Bardo State - Mariposa (2008)

Bardo State – Mariposa (2008)
EAC Rip | FLAC (Tracks) +CUE, LOG | 398 MB | Covers Included
Genre: Chillout, Ambient | Label: United Recordings | Catalog Number: UTD5008

Bardo State consists of the duo Frank Wijn and Dorian Broekhuyse. Frank is the son of Jan Wijn, a famous Dutch concert pianist, while Dorian attended the conservatory in Amsterdam and has a background in pop and dance music. Dorian used to work with Jocelyn Brown, Victoria Wilson James (Soul II Soul) and George Clinton during the nineties. Raised on musical influences such as Satie, Ravel & Saint-Saëns, the Dutch twosome are also inspired by contemporary composers like Arvo Pärt and Philip Glass. They compose music that is best described as a crossover between pop and classical music. Bardo State works with various classical and pop vocalists, both male and female, including Jo Lemaire and Kevin Mark Trail (The Streets). They use classical themes and traditional folk music to base their music on.
Bardo State started producing in 2004 and their debut album Mariposa was released in 2008. Their album Mariposa has been reviewed in national as well as in international magazines. Bardo State has among others remixed Radiohead and covered David Bowie and Kate Bush. One of their tracks, "Kosovo", was the soundtrack of the Hollywood film Jekyll and Hyde. Many songs of Bardo State have been licensed for several compilations, such as the "Buddha Bar"- and the "Supperclub" compilations. Two of their singles, "Paradis" and "This Is Not America", were regularly played at Radio 2 (Netherlands) and "Sospiro" was used for a performance by contestants in the Italian TV show Amici.

EAC Log
Exact Audio Copy V0.99 prebeta 4 from 23. January 2008

EAC extraction logfile from 28. November 2008, 20:09

Bardo State / Mariposa

Used drive : PIONEER DVD-RW DVR-112D Adapter: 3 ID: 0

Read mode : Secure
Utilize accurate stream : Yes
Defeat audio cache : Yes
Make use of C2 pointers : No

Read offset correction : 48
Overread into Lead-In and Lead-Out : No
Fill up missing offset samples with silence : Yes
Delete leading and trailing silent blocks : No
Null samples used in CRC calculations : Yes
Used interface : Installed external ASPI interface

Used output format : User Defined Encoder
Selected bitrate : 192 kBit/s
Quality : Low
Add ID3 tag : Yes
Command line compressor : C:Program FilesE A C AudioFlacflac.exe
Additional command line options : -V -8 -T "artist=%a" -T "title=%t" -T "album=%g" -T "date=%y" -T "tracknumber=%n" -T "genre=%m" %s

TOC of the extracted CD

Track | Start | Length | Start sector | End sector
––––––––––––––––––––––––––––-
1 | 0:00.00 | 4:39.56 | 0 | 20980
2 | 4:39.56 | 3:53.35 | 20981 | 38490
3 | 8:33.16 | 4:13.01 | 38491 | 57466
4 | 12:46.17 | 2:12.17 | 57467 | 67383
5 | 14:58.34 | 5:36.56 | 67384 | 92639
6 | 20:35.15 | 4:51.40 | 92640 | 114504
7 | 25:26.55 | 3:23.40 | 114505 | 129769
8 | 28:50.20 | 3:35.14 | 129770 | 145908
9 | 32:25.34 | 5:37.55 | 145909 | 171238
10 | 38:03.14 | 5:57.49 | 171239 | 198062
11 | 44:00.63 | 3:53.01 | 198063 | 215538
12 | 47:53.64 | 2:20.72 | 215539 | 226110
13 | 50:14.61 | 5:34.54 | 226111 | 251214
14 | 55:49.40 | 3:47.42 | 251215 | 268281

Range status and errors

Selected range

Filename G:lossless-room.nnm.ruBardo State – MariposaBardo State – MariposaBardo State – Mariposa.wav

Peak level 96.5 %
Range quality 100.0 %
Test CRC 90E71BE3
Copy CRC 90E71BE3
Copy OK

No errors occurred

AccurateRip summary

Track 1 not present in database
Track 2 not present in database
Track 3 not present in database
Track 4 not present in database
Track 5 not present in database
Track 6 not present in database
Track 7 not present in database
Track 8 not present in database
Track 9 not present in database
Track 10 not present in database
Track 11 not present in database
Track 12 not present in database
Track 13 not present in database
Track 14 not present in database

None of the tracks are present in the AccurateRip database

End of status report

Tracklist:
01. Mariposa
02. Paradis
03. I Feel You
04. The Jezebel Spirit
05. Mio Dolore
06. Poete Electronique
07. This Is Not America
08. Kosobo
09. Seneca
10. Sospiro
11. The Man With The Child In His Eyes
12. Solitario
13. Lifeblood
14. Cover Me

Bardo State – Mariposa (2008) Download, Warez, DDL, Free, Full Album, Torrent, Legal.

Download