Barclay James Harvest – Baby James Harvest (1972)

Download
Barclay James Harvest - Baby James Harvest (1972)

Barclay James Harvest – Baby James Harvest (1972)
EAC | Flac(Image) + Cue + Log & MP3 CBR 320Kbps
2002 | Harvest, 53840822 | ~ 487 or 186 Mb | Scans(jpg) -> 21 Mb
Progressive Rock | Remastered | 10 Bonus Tracks

"Baby James Harvest" is felt by many to be the weakest of their first four albums which were all released on the Harvest Label. This would be their last album for that label. This album is more of an acquired taste than their previous, more accessible releases. I remember being disappointed with the original LP release due to both the music and to the rather uninspired baby in a flowerpot cover, and lack of a gatefold sleeve. In retrospect however, the album was well worth getting to know.

The album contains just six tracks in all. There is the prog rock classic "Summer soldier", surely one of the most underrated prog epics by anyone. Constructed in two distinct parts, it has passing similarities with Uriah Heep’s "July Morning". The final track "Moonwater" has a classical sound and structure, with delicate vocals and significant orchestration.

The diversity of the band’s first album returns, with the rocking "Thank you", (a tribute to their road crew and literally everyone else), and the brass backed "Delph town morn". Elsewhere, "One hundred thousand smiles out" has more than a hint of "Space Oddity" to it.

The tracks are generally longer than those on previous albums allowing the band to develop them slightly more. The remastered version has some interesting bonus tracks, including the excellent non-album single "The Joker".

by Easy Livin, progarchives

Barclay James Harvest – Baby James Harvest (1972):

Barclay James Harvest - Baby James Harvest (1972)

Tracklist:

01. Crazy (Over You) (4:09)
02. Delph Town Morn (4:43)
03. Summer Soldier (10:23)
04. Thank You (4:23)
05. One Hundred Thousand Smiles Out (6:04)
06. Moonwater (Poco Adagio) (7:22)

Bonus Tracks:
7. Child Of Man (3:21)
8. I’m Over You (3:53)
9. When The City Sleeps (Bombadil) (4:16)
10. Breathless (Bombadil) (3:09)
11. Thank You (Alternative Version) (4:27)
12. Medicine Man (Single Version) (4:29)
13. Rock And Roll Woman (3:18)
14. The Joker (3:32)
15. Child Of Man (BBC Session 15th March 1972) (3:37)
16. Moonwater (2002 Remix) (7:20)

EAC Log
Exact Audio Copy V1.0 beta 3 from 29. August 2011

EAC extraction logfile from 7. April 2012, 19:31

Barclay James Harvest / Baby James Harvest

Used drive : PLEXTOR DVDR PX-810SA Adapter: 2 ID: 1

Read mode : Secure
Utilize accurate stream : Yes
Defeat audio cache : Yes
Make use of C2 pointers : No

Read offset correction : 48
Overread into Lead-In and Lead-Out : No
Fill up missing offset samples with silence : Yes
Delete leading and trailing silent blocks : No
Null samples used in CRC calculations : Yes
Used interface : Installed external ASPI interface

Used output format : User Defined Encoder
Selected bitrate : 32 kBit/s
Quality : Low
Add ID3 tag : No
Command line compressor : C:Program FilesExact Audio CopyFLACFLAC.EXE
Additional command line options : -8 -V -T "ARTIST=%artist%" -T "ALBUM=%albumtitle%" -T "DATE=%year%" -T "GENRE=%genre%" -T "COMMENT=EAC FLAC -8" %source%

TOC of the extracted CD

Track | Start | Length | Start sector | End sector
––––––––––––––––––––––––––––-
1 | 0:00.00 | 4:17.15 | 0 | 19289
2 | 4:17.15 | 4:48.37 | 19290 | 40926
3 | 9:05.52 | 10:27.45 | 40927 | 87996
4 | 19:33.22 | 4:23.58 | 87997 | 107779
5 | 23:57.05 | 6:04.62 | 107780 | 135141
6 | 30:01.67 | 7:30.20 | 135142 | 168911
7 | 37:32.12 | 3:21.25 | 168912 | 184011
8 | 40:53.37 | 3:52.68 | 184012 | 201479
9 | 44:46.30 | 4:15.70 | 201480 | 220674
10 | 49:02.25 | 3:08.45 | 220675 | 234819
11 | 52:10.70 | 4:27.30 | 234820 | 254874
12 | 56:38.25 | 4:29.32 | 254875 | 275081
13 | 61:07.57 | 3:17.65 | 275082 | 289921
14 | 64:25.47 | 3:32.05 | 289922 | 305826
15 | 67:57.52 | 3:36.55 | 305827 | 322081
16 | 71:34.32 | 7:20.13 | 322082 | 355094

Range status and errors

Selected range

Filename C:Program FilesBitCometDownloadsBarclay James HarvestRemasters1972 Barclay James Harvest – Baby James Harvest (2002 Remaster)Barclay James Harvest – Baby James Harvest.wav

Peak level 99.1 %
Extraction speed 8.0 X
Range quality 100.0 %
Test CRC 440FD330
Copy CRC 440FD330
Copy OK

No errors occurred

AccurateRip summary

Track 1 accurately ripped (confidence 8) [1D5861AD] (AR v1)
Track 2 accurately ripped (confidence 8) [47318F96] (AR v1)
Track 3 accurately ripped (confidence 8) [70854FD4] (AR v1)
Track 4 accurately ripped (confidence 8) [6973C4CA] (AR v1)
Track 5 accurately ripped (confidence 8) [E7B9A8DA] (AR v1)
Track 6 accurately ripped (confidence 8) [7AAFB0F3] (AR v1)
Track 7 accurately ripped (confidence 7) [A51DC4E1] (AR v1)
Track 8 accurately ripped (confidence 7) [496F9663] (AR v1)
Track 9 accurately ripped (confidence 6) [C9C36586] (AR v1)
Track 10 accurately ripped (confidence 7) [9DBC95B2] (AR v1)
Track 11 accurately ripped (confidence 7) [736C2D99] (AR v1)
Track 12 accurately ripped (confidence 7) [251E36B3] (AR v1)
Track 13 accurately ripped (confidence 7) [B6D95877] (AR v1)
Track 14 accurately ripped (confidence 7) [270A1997] (AR v1)
Track 15 accurately ripped (confidence 7) [FD78D721] (AR v1)
Track 16 accurately ripped (confidence 7) [3CC1B67D] (AR v1)

All tracks accurately ripped

End of status report

==== Log checksum B76B211DEF6E5624B04D18AF178FB34A7A905ABE42E5463D90BBE7CE013775BA ====

DR Log
foobar2000 1.2.9 / Dynamic Range Meter 1.1.1
log date: 2017-07-30 09:51:19

––––––––––––––––––––––––––––––––––––––––
Analyzed: Barclay James Harvest / Baby James Harvest
––––––––––––––––––––––––––––––––––––––––

DR Peak RMS Duration Track
––––––––––––––––––––––––––––––––––––––––
DR11 -0.76 dB -14.67 dB 4:17 01-Crazy Over (You)
DR9 -1.50 dB -13.59 dB 4:48 02-Delph Town Morn
DR11 -1.46 dB -16.07 dB 10:28 03-Summer Soldier
DR11 -0.99 dB -13.51 dB 4:24 04-Thank You
DR10 -1.46 dB -15.31 dB 6:05 05-One Hundred Thousand Smiles Out
DR10 -1.27 dB -17.37 dB 7:30 06-Moonwater
DR10 -0.09 dB -12.68 dB 3:21 07-Child of Man
DR10 -0.26 dB -13.84 dB 3:53 08-I’m Over You
DR9 -0.23 dB -11.90 dB 4:16 09-When the City Sleeps
DR9 -0.07 dB -11.28 dB 3:09 10-Breathless
DR11 -0.12 dB -13.03 dB 4:27 11-Thank You (Alternative version)
DR10 -0.34 dB -12.29 dB 4:29 12-Medicine Man (Single version)
DR10 -0.11 dB -13.15 dB 3:18 13-Rock and Roll Woman
DR9 -0.15 dB -12.22 dB 3:32 14-The Joker
DR10 -0.66 dB -12.54 dB 3:37 15-Child of Man (BBC session)
DR12 -0.07 dB -16.68 dB 7:20 16-Moonwater (2002 remix)
––––––––––––––––––––––––––––––––––––––––

Number of tracks: 16
Official DR value: DR10

Samplerate: 44100 Hz
Channels: 2
Bits per sample: 16
Bitrate: 837 kbps
Codec: FLAC

CUETools Log
[CUETools log; Date: 30.07.2017 9:45:08; Version: 2.1.4]
[CTDB TOCID: hrdBmA7KaY5ABHxFwb0Vxi9R1Kw-] found.
Track | CTDB Status
1 | (45/46) Accurately ripped
2 | (46/46) Accurately ripped
3 | (46/46) Accurately ripped
4 | (46/46) Accurately ripped
5 | (46/46) Accurately ripped
6 | (46/46) Accurately ripped
7 | (46/46) Accurately ripped
8 | (46/46) Accurately ripped
9 | (46/46) Accurately ripped
10 | (46/46) Accurately ripped
11 | (46/46) Accurately ripped
12 | (46/46) Accurately ripped
13 | (46/46) Accurately ripped
14 | (46/46) Accurately ripped
15 | (46/46) Accurately ripped
16 | (46/46) Accurately ripped
[AccurateRip ID: 0030e34e-023d99b6-fe127e10] found.
Track [ CRC | V2 ] Status
01 [1d5861ad|54248a61] (09+14/46) Accurately ripped
02 [47318f96|2b742fc7] (09+14/44) Accurately ripped
03 [70854fd4|a142475b] (09+14/44) Accurately ripped
04 [6973c4ca|730e965b] (09+14/44) Accurately ripped
05 [e7b9a8da|292d5df6] (09+14/44) Accurately ripped
06 [7aafb0f3|cb5bbb5e] (09+14/44) Accurately ripped
07 [a51dc4e1|a0773480] (08+14/43) Accurately ripped
08 [496f9663|eda97356] (08+14/43) Accurately ripped
09 [c9c36586|bfdfe636] (07+14/42) Accurately ripped
10 [9dbc95b2|cf824f13] (08+14/43) Accurately ripped
11 [736c2d99|c9b53688] (08+13/42) Accurately ripped
12 [251e36b3|9fc92941] (08+14/43) Accurately ripped
13 [b6d95877|17cf8129] (08+13/39) Accurately ripped
14 [270a1997|7a990064] (08+13/40) Accurately ripped
15 [fd78d721|28fef36b] (08+13/40) Accurately ripped
16 [3cc1b67d|845e99df] (08+14/41) Accurately ripped
Offsetted by -676:
01 [af71aba1] (02/46) Accurately ripped
02 [c68bfa1e] (02/44) Accurately ripped
03 [c454779e] (02/44) Accurately ripped
04 [470360ea] (02/44) Accurately ripped
05 [3bae52aa] (02/44) Accurately ripped
06 [7413c403] (02/44) Accurately ripped
07 [04db8a22] (02/43) Accurately ripped
08 [c2bf1826] (02/43) Accurately ripped
09 [c07fbd5e] (02/42) Accurately ripped
10 [992a6e3d] (02/43) Accurately ripped
11 [286be86e] (02/42) Accurately ripped
12 [683d8f31] (02/43) Accurately ripped
13 [ff4e81af] (02/39) Accurately ripped
14 [d99917aa] (02/40) Accurately ripped
15 [51f945d7] (02/40) Accurately ripped
16 [fba0c42c] (02/41) Accurately ripped
Offsetted by -664:
01 [a8680220] (02/46) Accurately ripped
02 [a50ad49b] (02/44) Accurately ripped
03 [86408583] (02/44) Accurately ripped
04 [f85c818e] (02/44) Accurately ripped
05 [66a30ebb] (02/44) Accurately ripped
06 [03f16cee] (02/44) Accurately ripped
07 [4df51964] (02/43) Accurately ripped
08 [d00d61cb] (02/43) Accurately ripped
09 [63f7b31e] (02/42) Accurately ripped
10 [598ae23f] (02/43) Accurately ripped
11 [0c1c9266] (02/42) Accurately ripped
12 [c4244e5a] (02/43) Accurately ripped
13 [cabfaaa2] (02/39) Accurately ripped
14 [f27dad3f] (02/40) Accurately ripped
15 [cd237b8a] (02/40) Accurately ripped
16 [25119086] (02/41) Accurately ripped
Offsetted by -667:
01 [e55867d4] (02/46) Accurately ripped
02 [57d77716] (00/44) No match (V2 was not tested)
03 [604e9686] (00/44) No match (V2 was not tested)
04 [6ca53a01] (00/44) No match (V2 was not tested)
05 [53676b18] (00/44) No match (V2 was not tested)
06 [15858db3] (00/44) No match (V2 was not tested)
07 [da1cb82d] (00/43) No match (V2 was not tested)
08 [bdf8ed4e] (00/43) No match (V2 was not tested)
09 [0cc197bf] (00/42) No match (V2 was not tested)
10 [81ed274a] (00/43) No match (V2 was not tested)
11 [70ba0ba4] (00/42) No match (V2 was not tested)
12 [1e7cb7ab] (00/43) No match (V2 was not tested)
13 [a07baba7] (00/39) No match (V2 was not tested)
14 [3b263f7f] (00/40) No match (V2 was not tested)
15 [63f98246] (00/40) No match (V2 was not tested)
16 [5aafdd70] (00/41) No match (V2 was not tested)
Offsetted by -474:
01 [e6d7e7cc] (00/46) No match (V2 was not tested)
02 [536c1025] (00/44) No match (V2 was not tested)
03 [06732287] (00/44) No match (V2 was not tested)
04 [dd440af6] (00/44) No match (V2 was not tested)
05 [c7e9fff5] (00/44) No match (V2 was not tested)
06 [2da290ec] (00/44) No match (V2 was not tested)
07 [3147a603] (00/43) No match (V2 was not tested)
08 [a3b9e5e1] (00/43) No match (V2 was not tested)
09 [665c7208] (00/42) No match (V2 was not tested)
10 [ad89d48d] (00/43) No match (V2 was not tested)
11 [abc5ea00] (00/42) No match (V2 was not tested)
12 [207808a6] (00/43) No match (V2 was not tested)
13 [adcdc02f] (00/39) No match (V2 was not tested)
14 [b6fc4814] (00/40) No match (V2 was not tested)
15 [5e87ac0d] (00/40) No match (V2 was not tested)
16 [00ca33b2] (00/41) No match (V2 was not tested)
Offsetted by -36:
01 [042b1a7d] (00/46) No match (V2 was not tested)
02 [44fd2859] (00/44) No match (V2 was not tested)
03 [c336fdfc] (00/44) No match (V2 was not tested)
04 [c1e663c1] (00/44) No match (V2 was not tested)
05 [6b7c27a8] (00/44) No match (V2 was not tested)
06 [bd2942ef] (00/44) No match (V2 was not tested)
07 [a3358161] (00/43) No match (V2 was not tested)
08 [9220604f] (00/43) No match (V2 was not tested)
09 [38975ae4] (00/42) No match (V2 was not tested)
10 [10dc2ccf] (00/43) No match (V2 was not tested)
11 [ad565c49] (00/42) No match (V2 was not tested)
12 [866c337b] (00/43) No match (V2 was not tested)
13 [d3569c34] (00/39) No match (V2 was not tested)
14 [cfa1b30a] (00/40) No match (V2 was not tested)
15 [b4480bb4] (00/40) No match (V2 was not tested)
16 [990f522f] (00/41) No match (V2 was not tested)

Track Peak [ CRC32 ] [W/O NULL] [ LOG ]
– 99,1 [440FD330] [5C3B1488] CRC32
01 91,6 [0AC74423] [55F7943F]
02 84,1 [DC03FAB5] [F74B230E]
03 84,5 [92B5D5C0] [6E3AE5F2]
04 89,2 [FFEB044F] [888A9F11]
05 84,5 [90D4170A] [ECED5DF6]
06 86,3 [4398A2BC] [6A7D985B]
07 99,0 [78BE03A6] [6368E51E]
08 97,0 [AC235194] [563776E7]
09 97,3 [6E52606D] [500C4522]
10 99,1 [7D1E37FD] [EA6A1A20]
11 98,6 [2D42FECB] [FBB678C9]
12 96,1 [13AE0EDD] [4265DB52]
13 98,7 [070E88D9] [C21D0973]
14 98,2 [5BE3BC5E] [FE0CAE20]
15 92,6 [674B56B8] [8FC379E0]
16 99,1 [14C6C419] [CCF27C68]

Barclay James Harvest - Baby James Harvest (1972)

All thanks go to the original releaser

Barclay James Harvest in my Blog

Download Barclay James Harvest – Baby James Harvest (1972):

Barclay James Harvest – Baby James Harvest (1972) Download, Warez, DDL, Free, Full Album, Torrent, Legal.

Download