Barbra Streisand – Christmas Memories (2001) [Japan] | ViralVideoPk

Daily Dose of Free Downloads

Barbra Streisand – Christmas Memories (2001) [Japan]

Download

Barbra Streisand - Christmas Memories (2001) [Japan]

Barbra Streisand – Christmas Memories (2001) [Japan]
Pop, Vocal, Christmas | EAC Rip | FLAC, Img+CUE+LOG+Full Scans-600dpi (PNG) | 47:14 Min | 580,28 Mb
Label: Sony Music Japan international Inc. (Japan) | Released: 2001-11-14 (2001-10-30)
Barbra Streisand - Christmas Memories (2001) [Japan]

“Christmas Memories” is the second Christmas album and 57th album by singer Barbra Streisand, released in 2001. The album reached #15 on the Billboard 200 albums chart and has been certified as Platinum, her 28th platinum disc in America. Sales have now reached 1 million copies in the USA.

~Wikipedia

Barbra Streisand makes a point of noting that she completed this, her second Christmas album, before the tragic events of September 11, 2001, even going so far as to list the recording dates (July 19-September 7, 2001). And listening to the disc, you can see why. If great artists sometimes demonstrate an uncanny ability to take the temperature of the times with their work, this one can be said to have anticipated the dramatic change in mood that the terrorist attacks occasioned. Christmas music always mixes the celebratory with the nostalgic, some of its classic songs dating from the World War II era when families were separated and feared they might not be reunited. But Streisand’s Christmas Memories accentuates that tone well into melancholy. The 59-year-old singer has assembled a group of songs that look back on Christmases past from a mature perspective that very much takes loss into consideration, beginning with one of those war songs, “I’ll Be Home for Christmas.” On two occasions, she has prompted lyricists to rewrite their songs, having Dean Pitchford alter the words to “Closer,” a new song submitted to her, to reflect the death of her friend Stephan Weiss (husband of fashion designer Donna Karan) and even getting the amazingly pliable Stephen Sondheim to revise “I Remember” from his 1966 TV musical Evening Primrose. As remade, “I Remember” remains an extremely sad song, however. When she isn’t mourning, Streisand is trying for grand statements such as the politically oriented “Grown-Up Christmas List” and the ecumenical “One God,” songs in keeping with Christmas’s sentimentality that seem perfectly chosen for the inevitably sober-tinged holiday season of 2001. In coming years, Christmas Memories may come to seem like a remarkably dour holiday collection, but for the year of its release, it could hardly be improved upon.

~Review by William Ruhlmann
Barbra Streisand - Christmas Memories (2001) [Japan]

Barbra Streisand - Christmas Memories (2001) [Japan]

Release of this album: 2001, October, 30 [CD Columbia Records, Cat.# CK 85920, USA]
Release of this CD: 2001, November, 14 [CD Sony Music Japan international Inc. (Japan), Cat.# SICP-26 / EAN: 4547366001129]
©℗ 2001 Sony Music Entertainment, Inc.
Manufactured by Sony Music Japan international Inc.
Made in Japan

Credits:
Executive-Producers – Barbra Streisand, Jay Landers
Photography – Firooz Zahedi

Tracklist:

01. "I’ll Be Home for Christmas" (04:12)
(Kim Gannon, Walter Kent, Buck Ram)
02. "A Christmas Love Song" (03:57)
(Alan Bergman, Marilyn Bergman, Johnny Mandel)
03. "What Are You Doing New Year’s Eve?" (03:54)
(Frank Loesser)
04. "I Remember" (04:57)
(Stephen Sondheim)
05. "Snowbound" (02:59)
(Russell Faith, Clarence Kehner)
06. "It Must Have Been the Mistletoe" (03:10)
(Douglas Konecky, Justin Wilde)
07. "Christmas Lullaby" (03:30)
(Ann Hampton Callaway)
08. "Christmas Mem’ries" (04:45)
(Alan Bergman, Marilyn Bergman, Don Costa)
09. "Grown-Up Christmas List" (03:29)
(David Foster, Linda Thompson)
10. "Ave Maria" (04:42)
(Franz Schubert)
11. "Closer" (03:58)
(Dean Pitchford, Tom Snow)
12. "One God" (03:39)
(Ervin Drake, Jimmy Shirl)

EAC log
Exact Audio Copy V1.3 from 2. September 2016

EAC extraction logfile from 24. December 2016, 16:42

Barbra Streisand / Christmas Memories

Used drive : PIONEER BD-RW BDR-208D Adapter: 1 ID: 0

Read mode : Secure
Utilize accurate stream : Yes
Defeat audio cache : Yes
Make use of C2 pointers : No

Read offset correction : 667
Overread into Lead-In and Lead-Out : No
Fill up missing offset samples with silence : Yes
Delete leading and trailing silent blocks : No
Null samples used in CRC calculations : Yes
Used interface : Native Win32 interface for Win NT & 2000

Used output format : Internal WAV Routines
Sample format : 44.100 Hz; 16 Bit; Stereo

TOC of the extracted CD

Track | Start | Length | Start sector | End sector
––––––––––––––––––––––––––––-
1 | 0:00.00 | 4:12.07 | 0 | 18906
2 | 4:12.07 | 3:56.60 | 18907 | 36666
3 | 8:08.67 | 3:53.55 | 36667 | 54196
4 | 12:02.47 | 4:57.35 | 54197 | 76506
5 | 17:00.07 | 2:59.08 | 76507 | 89939
6 | 19:59.15 | 3:09.70 | 89940 | 104184
7 | 23:09.10 | 3:29.70 | 104185 | 119929
8 | 26:39.05 | 4:45.20 | 119930 | 141324
9 | 31:24.25 | 3:29.35 | 141325 | 157034
10 | 34:53.60 | 4:42.12 | 157035 | 178196
11 | 39:35.72 | 3:58.33 | 178197 | 196079
12 | 43:34.30 | 3:39.32 | 196080 | 212536

Range status and errors

Selected range

Filename D:BlondStyleBarbra Streisand – Christmas Memories.wav

Peak level 96.5 %
Extraction speed 6.6 X
Range quality 100.0 %
Test CRC 9FCAE738
Copy CRC 9FCAE738
Copy OK

No errors occurred

AccurateRip summary

Track 1 accurately ripped (confidence 1) [0899FE87] (AR v1)
Track 2 accurately ripped (confidence 1) [AEC0C87A] (AR v1)
Track 3 accurately ripped (confidence 1) [0F4BE41A] (AR v1)
Track 4 accurately ripped (confidence 1) [061831E5] (AR v1)
Track 5 accurately ripped (confidence 1) [86D76A3B] (AR v1)
Track 6 accurately ripped (confidence 1) [DFDF34A6] (AR v1)
Track 7 accurately ripped (confidence 1) [532932B4] (AR v1)
Track 8 accurately ripped (confidence 1) [32C726FB] (AR v1)
Track 9 accurately ripped (confidence 1) [F076ADA0] (AR v1)
Track 10 accurately ripped (confidence 1) [71F6A3F3] (AR v1)
Track 11 accurately ripped (confidence 1) [A9726F57] (AR v1)
Track 12 accurately ripped (confidence 1) [96051020] (AR v1)

All tracks accurately ripped

End of status report

–– CUETools DB Plugin V2.1.6

[CTDB TOCID: ObF1weZpjizJqFrcfCB91hFzXlU-] disk not present in database
Submit result: ObF1weZpjizJqFrcfCB91hFzXlU- has been uploaded

==== Log checksum D9B250DCC125F43B0A8653983F9AB28E7527EA600EF3687C3CFC18CEF3845633 ====

Dynamic Range Meter log
––––––––––––––––––––––––––––––––––––––––
Analyzed: Barbra Streisand / Christmas Memories
––––––––––––––––––––––––––––––––––––––––

DR Peak RMS Duration Track
––––––––––––––––––––––––––––––––––––––––
DR8 -0.31 dB -12.52 dB 4:12 01-I’ll Be Home For Christmas
DR9 -0.41 dB -12.01 dB 3:57 02-A Christmas Love Song
DR8 -0.31 dB -12.03 dB 3:54 03-What Are You Doing New Year’s Eve
DR10 -0.31 dB -14.62 dB 4:57 04-I Remember
DR8 -0.31 dB -11.93 dB 2:59 05-Snowbound
DR7 -0.31 dB -11.14 dB 3:10 06-It Must Have Been The Mistletoe
DR8 -0.31 dB -12.21 dB 3:30 07-Christmas Lullaby
DR9 -0.31 dB -11.63 dB 4:45 08-Christmas Mem’ries
DR8 -0.31 dB -12.55 dB 3:29 09-Grown-Up Christmas List
DR9 -0.31 dB -12.25 dB 4:42 10-Ave Maria
DR9 -0.31 dB -13.06 dB 3:58 11-Closer
DR5 -0.31 dB -9.83 dB 3:39 12-One God
––––––––––––––––––––––––––––––––––––––––

Number of tracks: 12
Official DR value: DR8

Samplerate: 44100 Hz
Channels: 2
Bits per sample: 16
Bitrate: 778 kbps
Codec: FLAC
================================================================================

Barbra Streisand – Christmas Memories (2001) [Japan] Download, Warez, DDL, Free, Full Album, Torrent, Legal.

Download


  • Recent Posts

  • Recent Tags