Bar-Kays – Soul Finger (1967) {Stax/Rhino} [Re-Up]

Download
Bar-Kays - Soul Finger (1967) {Stax/Rhino} [Re-Up]

Bar-Kays – Soul Finger (1967) {Stax/Rhino}
EAC 1.0b1 | FLAC tracks level 8 | Cue+Log+M3U | Full Scans 600dpi | 177MB + 5% Recovery
MP3 CBR 320 Kbps | 76MB + 5% Recovery
Genre: Soul, Funk

The Bar-Kays were an aggregate born of the same inspiration behind Booker T. & the MG’s – performing the double-duty of being a backing combo for the significant canon of vocalists on the Memphis-based Stax and Volt labels, as well as a self-contained unit. The original lineup of James Alexander (bass), Jimmy King (guitar), Ronnie Caldwell (organ), Phalon Jones (sax), Carl Cunningham (drums), and Ben Cauley (trumpet) were only together long enough to have issued this album prior to the tragic loss of everyone sans Alexander and Cauley in the December ’67.

Track List
01. Soul Finger 2:22
02. Knucklehead 2:22
03. With A Child’s Heart 3:00
04. Bar-Kay’s Boogaloo 2:18
05. Theme From Hell’s Angels 2:49
06. You Can’t Sit Down 3:09
07. House Shoes 2:49
08. Pearl High 2:38
09. I Want Someone 3:12
10. Hole In The Wall 2:35
11. Don’t Do That 2:51

musicians
Jimmy King – guitar
Ronnie Caldwell – organ
Phalon Jones – saxophone
Ben Cauley – trumpet
James Alexander – bass
Carl Cunningham – drums

EAC Logfile
Exact Audio Copy V1.0 beta 1 from 15. November 2010

EAC extraction logfile from 25. January 2011, 19:45

Bar-Kays / Soul Finger

Used drive : ATAPI iHAS424 Y Adapter: 0 ID: 3

Read mode : Secure
Utilize accurate stream : Yes
Defeat audio cache : Yes
Make use of C2 pointers : No

Read offset correction : 48
Overread into Lead-In and Lead-Out : No
Fill up missing offset samples with silence : Yes
Delete leading and trailing silent blocks : No
Null samples used in CRC calculations : Yes
Used interface : Native Win32 interface for Win NT & 2000
Gap handling : Appended to previous track

Used output format : User Defined Encoder
Selected bitrate : 768 kBit/s
Quality : High
Add ID3 tag : No
Command line compressor : C:Program FilesExact Audio CopyFlacflac.exe
Additional command line options : -8 -V -T "ARTIST=%a" -T "TITLE=%t" -T "ALBUM=%g" -T "DATE=%y" -T "TRACKNUMBER=%n" -T "TOTALTRACKS=%x" -T "GENRE=%m" -T "ALBUMARTIST=%v" -T "ALBUM ARTIST=%v" -T "COMMENT=EAC Secure Mode, Test & Copy, AccurateRip, FLAC -8" %s

TOC of the extracted CD

Track | Start | Length | Start sector | End sector
––––––––––––––––––––––––––––-
1 | 0:00.00 | 2:22.58 | 0 | 10707
2 | 2:22.58 | 2:22.50 | 10708 | 21407
3 | 4:45.33 | 3:00.27 | 21408 | 34934
4 | 7:45.60 | 2:18.28 | 34935 | 45312
5 | 10:04.13 | 2:49.25 | 45313 | 58012
6 | 12:53.38 | 3:09.30 | 58013 | 72217
7 | 16:02.68 | 2:49.12 | 72218 | 84904
8 | 18:52.05 | 2:38.33 | 84905 | 96787
9 | 21:30.38 | 3:12.65 | 96788 | 111252
10 | 24:43.28 | 2:35.00 | 111253 | 122877
11 | 27:18.28 | 2:51.65 | 122878 | 135767

Track 1

Filename G:UploadsBar-Kays – Soul Finger (1967) [FLAC]1 – Soul Finger.wav

Pre-gap length 0:00:02.00

Peak level 100.0 %
Extraction speed 1.6 X
Track quality 99.9 %
Test CRC 2191F6A9
Copy CRC 2191F6A9
Cannot be verified as accurate (confidence 8) [82560B4A], AccurateRip returned [2AD0DA18]
Copy OK

Track 2

Filename G:UploadsBar-Kays – Soul Finger (1967) [FLAC]2 – Knucklehead.wav

Pre-gap length 0:00:01.65

Peak level 100.0 %
Extraction speed 2.1 X
Track quality 100.0 %
Test CRC 5E5A8AF2
Copy CRC 5E5A8AF2
Cannot be verified as accurate (confidence 7) [92CE056F], AccurateRip returned [90BAC385]
Copy OK

Track 3

Filename G:UploadsBar-Kays – Soul Finger (1967) [FLAC]3 – With A Child’s Heart.wav

Pre-gap length 0:00:02.15

Peak level 100.0 %
Extraction speed 2.4 X
Track quality 100.0 %
Test CRC 48326F09
Copy CRC 48326F09
Cannot be verified as accurate (confidence 7) [7BBBF4EA], AccurateRip returned [DFFEBFD1]
Copy OK

Track 4

Filename G:UploadsBar-Kays – Soul Finger (1967) [FLAC]4 – Bar-Kay’s Boogaloo.wav

Pre-gap length 0:00:01.72

Peak level 100.0 %
Extraction speed 2.4 X
Track quality 100.0 %
Test CRC 8D99F1EA
Copy CRC 8D99F1EA
Cannot be verified as accurate (confidence 7) [9493A950], AccurateRip returned [68AFA785]
Copy OK

Track 5

Filename G:UploadsBar-Kays – Soul Finger (1967) [FLAC]5 – Theme From Hell’s Angels.wav

Pre-gap length 0:00:01.63

Peak level 100.0 %
Extraction speed 2.2 X
Track quality 99.9 %
Test CRC 23632DE9
Copy CRC 23632DE9
Cannot be verified as accurate (confidence 7) [92FF6BFD], AccurateRip returned [58906A35]
Copy OK

Track 6

Filename G:UploadsBar-Kays – Soul Finger (1967) [FLAC]6 – You Can’t Sit Down.wav

Pre-gap length 0:00:02.45

Peak level 100.0 %
Extraction speed 2.9 X
Track quality 100.0 %
Test CRC 542F30BA
Copy CRC 542F30BA
Cannot be verified as accurate (confidence 7) [6CA75062], AccurateRip returned [E53E0968]
Copy OK

Track 7

Filename G:UploadsBar-Kays – Soul Finger (1967) [FLAC]7 – House Shoes.wav

Pre-gap length 0:00:02.65

Peak level 100.0 %
Extraction speed 2.9 X
Track quality 100.0 %
Test CRC 549D2512
Copy CRC 549D2512
Cannot be verified as accurate (confidence 6) [6BBBD1E4], AccurateRip returned [485DC10D]
Copy OK

Track 8

Filename G:UploadsBar-Kays – Soul Finger (1967) [FLAC]8 – Pearl High.wav

Pre-gap length 0:00:01.62

Peak level 100.0 %
Extraction speed 3.0 X
Track quality 100.0 %
Test CRC 9364D52B
Copy CRC 9364D52B
Cannot be verified as accurate (confidence 7) [8FD6FA1C], AccurateRip returned [3E74C5B6]
Copy OK

Track 9

Filename G:UploadsBar-Kays – Soul Finger (1967) [FLAC]9 – I Want Someone.wav

Pre-gap length 0:00:03.08

Peak level 100.0 %
Extraction speed 3.2 X
Track quality 100.0 %
Test CRC 9D2003FB
Copy CRC 9D2003FB
Cannot be verified as accurate (confidence 7) [39912D48], AccurateRip returned [E0EC92BB]
Copy OK

Track 10

Filename G:UploadsBar-Kays – Soul Finger (1967) [FLAC]10 – Hole In The Wall.wav

Pre-gap length 0:00:02.23

Peak level 93.0 %
Extraction speed 3.2 X
Track quality 100.0 %
Test CRC 7ACF5F94
Copy CRC 7ACF5F94
Cannot be verified as accurate (confidence 7) [18C29DF5], AccurateRip returned [06FB71E5]
Copy OK

Track 11

Filename G:UploadsBar-Kays – Soul Finger (1967) [FLAC]11 – Don’t Do That.wav

Pre-gap length 0:00:01.20

Peak level 100.0 %
Extraction speed 3.4 X
Track quality 100.0 %
Test CRC CA27159F
Copy CRC CA27159F
Cannot be verified as accurate (confidence 7) [3425C307], AccurateRip returned [B4CE665D]
Copy OK

No tracks could be verified as accurate
You may have a different pressing from the one(s) in the database

No errors occurred

End of status report

==== Log checksum A423D2E1CB7B6BF49D92DFEB7835A7D9A9DFF1A68683E8E08344206D95AB623A ====

Bar-Kays 			  		   	  		      		 	    	 			   		   	  		 	 	  		  	   	 			   		   	  		 		   			     	 			   		   	  		   				 - Soul Finger (1967) {Stax/Rhino} [Re-Up]
Bar-Kays - Soul Finger (1967) {Stax/Rhino} [Re-Up]
Bar-Kays - Soul Finger (1967) {Stax/Rhino} [Re-Up]

Thanks to the original ripper

Bar-Kays – Soul Finger (1967) {Stax/Rhino} [Re-Up] Download, Warez, DDL, Free, Full Album, Torrent, Legal.

Download