Bad Manners – Loonee Tunes! (1980) [Reissue 2010] | ViralVideoPk

Daily Dose of Free Downloads

Bad Manners – Loonee Tunes! (1980) [Reissue 2010]

Download

Bad Manners - Loonee Tunes! (1980) [Reissue 2010]

Bad Manners – Loonee Tunes! (1980) [Reissue 2010]
EAC Rip | FLAC (Image) +CUE, LOG | 302 MB | Covers Included
Genre: Ska | Label: Cherry Red Records | Catalog Number: PDROP CD14

Loonee Tunes! is the second album by Bad Manners, from the year 1980. In keeping with the format of their first album, the first track is an instrumental. It reached number 36 on the UK album chart. The album opens with "Echo 4-2" which became the band’s cult instrumental introduction number at all live gigs.

EAC Log
Exact Audio Copy V1.0 beta 2 from 29. April 2011

EAC extraction logfile from 20. June 2011, 17:23

Bad Manners / Loonee Tunes!

Used drive : _NEC DVD_RW ND-3550A Adapter: 1 ID: 0

Read mode : Secure
Utilize accurate stream : Yes
Defeat audio cache : Yes
Make use of C2 pointers : No

Read offset correction : 48
Overread into Lead-In and Lead-Out : No
Fill up missing offset samples with silence : Yes
Delete leading and trailing silent blocks : No
Null samples used in CRC calculations : Yes
Used interface : Native Win32 interface for Win NT & 2000

Used output format : User Defined Encoder
Selected bitrate : 768 kBit/s
Quality : High
Add ID3 tag : No
Command line compressor : C:Program FilesExact Audio CopyFLACFLAC.EXE
Additional command line options : -6 -V -T "ARTIST=%artist%" -T "TITLE=%title%" -T "ALBUM=%albumtitle%" -T "DATE=%year%" -T "TRACKNUMBER=%tracknr%" -T "GENRE=%genre%" -T "COMMENT=%comment%" -T "BAND=%albuminterpret%" -T "COMPOSER=%composer%" %haslyrics%–ta

TOC of the extracted CD

Track | Start | Length | Start sector | End sector
––––––––––––––––––––––––––––-
1 | 0:00.00 | 2:43.62 | 0 | 12286
2 | 2:43.62 | 3:11.18 | 12287 | 26629
3 | 5:55.05 | 2:27.60 | 26630 | 37714
4 | 8:22.65 | 2:46.52 | 37715 | 50216
5 | 11:09.42 | 4:02.17 | 50217 | 68383
6 | 15:11.59 | 2:09.50 | 68384 | 78108
7 | 17:21.34 | 3:13.67 | 78109 | 92650
8 | 20:35.26 | 4:18.71 | 92651 | 112071
9 | 24:54.22 | 3:01.70 | 112072 | 125716
10 | 27:56.17 | 2:24.19 | 125717 | 136535
11 | 30:20.36 | 2:35.21 | 136536 | 148181
12 | 32:55.57 | 3:05.13 | 148182 | 162069
13 | 36:00.70 | 6:20.13 | 162070 | 190582
14 | 42:21.08 | 3:23.29 | 190583 | 205836

Range status and errors

Selected range

Filename D:1Bad Manners – Loonee Tunes! (1980)Bad Manners – Loonee Tunes!.wav

Peak level 100.0 %
Extraction speed 5.0 X
Range quality 100.0 %
Test CRC B33C1476
Copy CRC B33C1476
Copy OK

No errors occurred

End of status report

==== Log checksum BA3DC055456BF20D82A86D09AFD3FFE789209AC54BA9958F6C596F0A2CFF0BC5 ====

Tracklist:
01. Echo 4-2
02. Just A Feeling
03. El Pussycat
04. Doris
05. Spy I
06. Tequila
07. Lorraine
08. Echo Gone Wrong
09. Suicide
10. The Under The Sea Adventures Of Ivor The Engine
11. Back In 60
12. Just Pretendin’
13. Lorraine (Extended 12 Inch Version)
14. Here Comes The Major (New Version)

Bad Manners – Loonee Tunes! (1980) [Reissue 2010] Download, Warez, DDL, Free, Full Album, Torrent, Legal.

Download


  • Recent Posts

  • Recent Tags