Bach-Weiss – Evangelina Mascardi (Laute) [2003]

Download
Bach-Weiss - Evangelina Mascardi (Laute) [2003]

Bach-Weiss – Evangelina Mascardi (Laute) [2003]
EAC Rip | FLAC, IMG+CUE, LOG | Covers | 1cd, 268 MB
Classical | Label: ORF | Catalog Number: CD345 | TT: 60’42

Die 1977 in Buenos Aires geborene Evangelina Mascardi studierte in ihrer Heimatstadt Gitarre an der „J.P. Esnaola National School of Music" bei Silvia Fernandez und Gabriel Schebor, bevor sie 1997 in die Lautenklasse von Hopkinson Smith an der „Schola Cantorum Basiliensis" eintrat, wo sie 2001 ihr Solistendiplom erlangt hat. Als Solistin nahm sie an mit großem Erfolg an verschiedenen Festivals teil (u.a. „Fringe" Barcelona. „Junge Künstler" Nürnberg, „Concentus" Berlin). Evangelina Mascardi spielt Continuo in verschiedenen Ensembles, wie „Venice Baroque Orchestra", „Zefiro", „Ensemble 415", „Capriccio Basel", „Ensemble Vocal de Lausanne" u.a.
Auf dem Programm dieser neuen CD der „Edition Alte Musik" stehen Werke von Sylvius Leopold Weiss und Johann Sebastian Bach.

Performer:
Evangelina Mascardi (Laute)

Tracklisting:
01. Weiss. Suite in G-Dur- Prelude 01:28
02. Allemande 04:59
03. Courante 02:29
04. Bourre 02:20
05. Sarabande 03:52
06. Menuett 02:04
07. Gigue 02:56
08. Bach. Sonata 1 per violino sena basso BWV 1001- Adagio 04:12
09. Fuga 05:42
10. Siciliana 02:59
11. Presto 04:56
12. Weiss. Fantasia in C-Dur 04:11
13. Bach. Partita c-Moll BWV 997- Prelude 03:56
14. Sarabande 05:25
15. Gigue 03:38
16. Weiss. Tombeau sur la Mord M. Comte d’Logy arrivee 1721 05:38

LOG
Exact Audio Copy V1.0 beta 3 from 29. August 2011

EAC extraction logfile from 7. March 2014, 8:42

Evangelina Mascardi Laute / Bach – Weiss

Used drive : ATAPI iHAS122 C Adapter: 0 ID: 0

Read mode : Secure
Utilize accurate stream : Yes
Defeat audio cache : Yes
Make use of C2 pointers : No

Read offset correction : 6
Overread into Lead-In and Lead-Out : No
Fill up missing offset samples with silence : Yes
Delete leading and trailing silent blocks : No
Null samples used in CRC calculations : Yes
Used interface : Native Win32 interface for Win NT & 2000

Used output format : User Defined Encoder
Selected bitrate : 192 kBit/s
Quality : High
Add ID3 tag : No
Command line compressor : C:Program FilesExact Audio CopyFlacflac.exe
Additional command line options : -V -8 -T "Date=%year%" -T "Genre=%genre%" %source%

TOC of the extracted CD

Track | Start | Length | Start sector | End sector
––––––––––––––––––––––––––––-
1 | 0:00.00 | 1:28.34 | 0 | 6633
2 | 1:28.34 | 4:59.13 | 6634 | 29071
3 | 6:27.47 | 2:29.21 | 29072 | 40267
4 | 8:56.68 | 2:20.37 | 40268 | 50804
5 | 11:17.30 | 3:52.32 | 50805 | 68236
6 | 15:09.62 | 2:03.56 | 68237 | 77517
7 | 17:13.43 | 2:55.74 | 77518 | 90716
8 | 20:09.42 | 4:12.15 | 90717 | 109631
9 | 24:21.57 | 5:42.11 | 109632 | 135292
10 | 30:03.68 | 2:58.59 | 135293 | 148701
11 | 33:02.52 | 4:56.18 | 148702 | 170919
12 | 37:58.70 | 4:10.74 | 170920 | 189743
13 | 42:09.69 | 3:56.03 | 189744 | 207446
14 | 46:05.72 | 5:25.08 | 207447 | 231829
15 | 51:31.05 | 3:38.18 | 231830 | 248197
16 | 55:09.23 | 5:38.16 | 248198 | 273563

Range status and errors

Selected range

Filename C:Program FilesExact Audio CopyFlacBach – Weiss – Evangelina Mascardi Laute.wav

Peak level 91.5 %
Extraction speed 3.4 X
Range quality 100.0 %
Test CRC 3A553E02
Copy CRC 3A553E02
Copy OK

No errors occurred

AccurateRip summary

Track 1 accurately ripped (confidence 1) [2C037A48] (AR v2)
Track 2 accurately ripped (confidence 1) [AADFB809] (AR v2)
Track 3 accurately ripped (confidence 1) [9951B1EC] (AR v2)
Track 4 accurately ripped (confidence 1) [6885E4F4] (AR v2)
Track 5 accurately ripped (confidence 1) [2FBD784A] (AR v2)
Track 6 accurately ripped (confidence 1) [79C3475D] (AR v2)
Track 7 accurately ripped (confidence 1) [020BBE63] (AR v2)
Track 8 accurately ripped (confidence 1) [A43F59D2] (AR v2)
Track 9 accurately ripped (confidence 1) [A22AC92D] (AR v2)
Track 10 accurately ripped (confidence 1) [FFA4178D] (AR v2)
Track 11 accurately ripped (confidence 1) [479B19AA] (AR v2)
Track 12 accurately ripped (confidence 1) [01486643] (AR v2)
Track 13 accurately ripped (confidence 1) [B8AE0DAE] (AR v2)
Track 14 accurately ripped (confidence 1) [58911A2C] (AR v2)
Track 15 accurately ripped (confidence 1) [11AFC692] (AR v2)
Track 16 accurately ripped (confidence 1) [A3030378] (AR v2)

All tracks accurately ripped

End of status report

==== Log checksum 11971FE6A46048F3D2AAC27D13EA3DC22675374FC2529A0951E1B2B4E91189C7 ====

Bach-Weiss – Evangelina Mascardi (Laute) [2003] Download, Warez, DDL, Free, Full Album, Torrent, Legal.

Download