B.B. King & Eric Clapton – Riding With The King (2000) REPOST

Download
B.B. King & Eric Clapton - Riding With The King (2000) REPOST

B.B. King & Eric Clapton – Riding With The King (2000)
Blues Rock | 1cd | EAC Rip | Flac + Cue + Log | covers
Reprise, 9362-47612-2 | rel: 2000 | 550Mb

The potential for a collaboration between B.B. King and Eric Clapton is enormous, of course, and the real questions concern how it is organized and executed. This first recorded pairing between the 74-year-old King and the 55-year-old Clapton was put together in the most obvious way: Clapton arranged the session using many of his regular musicians, picked the songs, and co-produced with his partner Simon Climie. That ought to mean that King would be a virtual guest star rather than earning a co-billing, but because of Clapton’s respect for his elder, it nearly works the other way around. The set list includes lots of King specialties – "Ten Long Years," "Three O’Clock Blues," "Days of Old," "When My Heart Beats Like a Hammer" – as well as standards like "Hold on I’m Coming" and "Come Rain or Come Shine," with some specially written and appropriate recent material thrown in, so King has reason to be comfortable without being complacent. The real danger is that Clapton will defer too much; though he can be inspired by a competing guitarist such as Duane Allman, he has sometimes tended to lean too heavily on accompanists such as Albert Lee and Mark Knopfler when working with them in concert. That danger is partially realized; as its title indicates, Riding With the King is more about King than it is about Clapton. But the two players turn out to have sufficiently complementary, if distinct, styles so that Clapton’s supportive role fills out and surrounds King’s stinging single-string playing. (It’s also worth noting that there are usually another two or three guitarists on each track.) The result is an effective, if never really stunning, work. ~Allmusic

Track listing
01. Riding With The King (4:23)
02. Ten Long Years (4:39)
03. Key To The Highway (3:39)
04. Marry You (4:59)
05. Three O’Clock Blues (8:35)
06. Help The Poor (5:06)
07. I Wanna Be (4:45)
08. Worried Life Blues (4:25)
09. Days Of Old (3:00)
10. When My Heart Beats Like A Hammer (7:07)
11. Hold On I’m Coming (6:19)
12. Come Rain Or Come Shine (4:11)

eac log:
Exact Audio Copy V1.0 beta 3 from 29. August 2011

Отчёт EAC об извлечении, выполненном 25. сентября 2012, 21:03

B.B. King & Eric Clapton / Riding With The King

Дисковод: SONY CD-RW CRX230ED Adapter: 0 ID: 1

Режим чтения : Достоверность
Использование точного потока : Да
Отключение кэша аудио : Да
Использование указателей C2 : Нет

Коррекция смещения при чтении : 6
Способность читать области Lead-in и Lead-out : Нет
Заполнение пропущенных сэмплов тишиной : Да
Удаление блоков с тишиной в начале и конце : Нет
При вычислениях CRC использовались нулевые сэмплы : Да
Интерфейс : Встроенный Win32-интерфейс для Win NT/2000

Выходной формат : Внутренние WAV-операции
Формат сэмплов : 44.100 Гц; 16 бит; стерео

TOC извлечённого CD

Трек | Старт | Длительность | Начальный сектор | Конечный сектор
––––––––––––––––––––––––––––––––––-
1 | 0:00.00 | 4:23.35 | 0 | 19759
2 | 4:23.35 | 4:40.52 | 19760 | 40811
3 | 9:04.12 | 3:39.73 | 40812 | 57309
4 | 12:44.10 | 4:59.40 | 57310 | 79774
5 | 17:43.50 | 8:36.52 | 79775 | 118526
6 | 26:20.27 | 5:06.23 | 118527 | 141499
7 | 31:26.50 | 4:45.70 | 141500 | 162944
8 | 36:12.45 | 4:25.52 | 162945 | 182871
9 | 40:38.22 | 3:00.20 | 182872 | 196391
10 | 43:38.42 | 7:09.65 | 196392 | 228631
11 | 50:48.32 | 6:20.05 | 228632 | 257136
12 | 57:08.37 | 4:11.28 | 257137 | 275989

Характеристики диапазона извлечения и сообщения об ошибках

Выбранный диапазон

Имя файла E:MusicCDTorrentEric ClaptonB.B. King & Eric Clapton – Riding With The KingB.B. King & Eric Clapton – Riding With The King.wav

Пиковый уровень 98.8 %
Скорость извлечения 8.5 X
Качество диапазона 99.9 %
CRC теста 9DD40866
CRC копии 9DD40866
Копирование… OK

Ошибок не произошло

AccurateRip: сводка

Трек 1 : извлечено точно (доверие 81) [204026D7] (AR v2)
Трек 2 : извлечено точно (доверие 82) [B67C3A27] (AR v2)
Трек 3 : извлечено точно (доверие 82) [85052345] (AR v2)
Трек 4 : извлечено точно (доверие 81) [EA91D198] (AR v2)
Трек 5 : извлечено точно (доверие 82) [76F7390B] (AR v2)
Трек 6 : извлечено точно (доверие 81) [38AACC50] (AR v2)
Трек 7 : извлечено точно (доверие 80) [33824FCE] (AR v2)
Трек 8 : извлечено точно (доверие 81) [37CEDD45] (AR v2)
Трек 9 : извлечено точно (доверие 80) [74CFFD57] (AR v2)
Трек 10 : извлечено точно (доверие 81) [2247B00C] (AR v2)
Трек 11 : извлечено точно (доверие 81) [417C7BF3] (AR v2)
Трек 12 : извлечено точно (доверие 80) [3F066A10] (AR v2)

Все треки извлечены точно

Конец отчёта

==== Контрольная сумма отчёта AA884BDFA608B000AF9CE8DBE3FD0A13874C7A1B17E3F1EA0D61596768A5091E ====

cuetools report:
[CUETools log; Date: 2017. 02. 10. 21:59:40; Version: 2.1.6]
[CTDB TOCID: l7gdN_.SbzEsBijHsKkeNtZ018g-] found.
Track | CTDB Status
1 | (1376/1442) Accurately ripped
2 | (1395/1442) Accurately ripped
3 | (1395/1442) Accurately ripped
4 | (1392/1442) Accurately ripped
5 | (1393/1442) Accurately ripped
6 | (1387/1442) Accurately ripped
7 | (1386/1442) Accurately ripped
8 | (1393/1442) Accurately ripped
9 | (1394/1442) Accurately ripped
10 | (1385/1442) Accurately ripped, or (2/1442) differs in 504 samples @04:13:20,04:18:37,04:18:55,04:19:37,04:20:18,04:22:17,04:24:35,04:27:16,04:33:16,04:37:15,04:40:52,04:41:33,04:42:34,04:43:33,04:43:71,04:46:52,04:50:71,04:51:71,04:53:33,04:54:15,04:57:15,04:58:53,05:06:36,05:12:18,05:23:40-05:23:41,05:30:43,05:31:06,05:37:09,05:39:67,05:49:53,05:56:58,05:57:02,06:08:29,06:10:69,06:22:22,06:25:06,06:26:08,06:35:74
11 | (1208/1442) Accurately ripped, or (152/1442) differs in 342 samples @03:01:65,03:21:65, or (27/1442) differs in 342 samples @03:01:65,03:21:65, or (2/1442) differs in 12 samples @00:45:46
12 | (1386/1442) Accurately ripped, or (2/1442) differs in 12 samples @00:17:18, or (2/1442) differs in 2947 samples @04:11:06-04:11:17
[AccurateRip ID: 001ae174-00fd3278-9a0e5f0c] found.
Track [ CRC | V2 ] Status
01 [2501d822|204026d7] (200+200/672) Accurately ripped
02 [cfce963c|b67c3a27] (200+200/674) Accurately ripped
03 [f4a206bd|85052345] (200+200/670) Accurately ripped
04 [c926479f|ea91d198] (200+200/669) Accurately ripped
05 [b0c13365|76f7390b] (200+200/669) Accurately ripped
06 [5d1a468e|38aacc50] (200+200/665) Accurately ripped
07 [447cb152|33824fce] (200+200/662) Accurately ripped
08 [61beb01e|37cedd45] (200+200/665) Accurately ripped
09 [af5f1453|74cffd57] (200+200/669) Accurately ripped
10 [ea5f32d6|2247b00c] (200+200/666) Accurately ripped
11 [d68292bc|417c7bf3] (200+200/661) Accurately ripped
12 [972a67ea|3f066a10] (200+200/653) Accurately ripped
Offsetted by -724:
01 [40c8a72f] (002/672) Accurately ripped
02 [4e04af67] (002/674) Accurately ripped
03 [9569535e] (002/670) Accurately ripped
04 [adb3228e] (002/669) Accurately ripped
05 [e052afb1] (002/669) Accurately ripped
06 [f28d78b9] (002/665) Accurately ripped
07 [f1050d93] (002/662) Accurately ripped
08 [a3e2fa56] (002/665) Accurately ripped
09 [66629565] (002/669) Accurately ripped
10 [17b5f998] (002/666) Accurately ripped
11 [9eadf420] (002/661) Accurately ripped
12 [68dc4dbe] (002/653) Accurately ripped
Offsetted by -669:
01 [5928373c] (002/672) Accurately ripped
02 [090b1af0] (002/674) Accurately ripped
03 [2b902a90] (002/670) Accurately ripped
04 [08a8e0fe] (002/669) Accurately ripped
05 [4eeb58d0] (002/669) Accurately ripped
06 [c449aa87] (002/665) Accurately ripped
07 [762da9fb] (002/662) Accurately ripped
08 [e54da055] (002/665) Accurately ripped
09 [6220497a] (002/669) Accurately ripped
10 [c1f34548] (002/666) Accurately ripped
11 [bedabf1d] (002/661) Accurately ripped
12 [83b71947] (002/653) Accurately ripped
Offsetted by -659:
01 [503a4392] (008/672) Accurately ripped
02 [13e6ba9e] (009/674) Accurately ripped
03 [8f350454] (008/670) Accurately ripped
04 [4d0ba85e] (009/669) Accurately ripped
05 [c01e604a] (009/669) Accurately ripped
06 [ca21dec9] (009/665) Accurately ripped
07 [96e0c0fd] (009/662) Accurately ripped
08 [9e9d5814] (009/665) Accurately ripped
09 [91c6df6c] (009/669) Accurately ripped
10 [b38a68e7] (009/666) Accurately ripped
11 [f33ffb4b] (009/661) Accurately ripped
12 [88990fbd] (006/653) Accurately ripped
Offsetted by -646:
01 [95b3b7a0] (002/672) Accurately ripped
02 [07f72322] (002/674) Accurately ripped
03 [14000afc] (002/670) Accurately ripped
04 [a851911c] (002/669) Accurately ripped
05 [ece0b6cf] (002/669) Accurately ripped
06 [8a702484] (002/665) Accurately ripped
07 [f245f98a] (002/662) Accurately ripped
08 [b70b2bd8] (002/665) Accurately ripped
09 [dbb1aaaa] (002/669) Accurately ripped
10 [0c344af3] (002/666) Accurately ripped
11 [0429fcba] (002/661) Accurately ripped
12 [288b9cf0] (002/653) Accurately ripped
Offsetted by -98:
01 [00c3e1a6] (002/672) Accurately ripped
02 [ecd96304] (002/674) Accurately ripped
03 [314d386e] (002/670) Accurately ripped
04 [e132e0ba] (002/669) Accurately ripped
05 [c1cd1d53] (002/669) Accurately ripped
06 [e203aaef] (002/665) Accurately ripped
07 [3b65e041] (002/662) Accurately ripped
08 [f12e33d4] (002/665) Accurately ripped
09 [0e0c63a6] (002/669) Accurately ripped
10 [2938d4b1] (002/666) Accurately ripped
11 [083c11c6] (002/661) Accurately ripped
12 [cdb72bcc] (002/653) Accurately ripped
Offsetted by -65:
01 [f8246554] (006/672) Accurately ripped
02 [f7efdeb0] (006/674) Accurately ripped
03 [9ca9f27a] (006/670) Accurately ripped
04 [3402d314] (006/669) Accurately ripped
05 [d0f582cc] (006/669) Accurately ripped
06 [09d8d88a] (006/665) Accurately ripped
07 [9600d631] (006/662) Accurately ripped
08 [e4dfbcdf] (006/665) Accurately ripped
09 [75253954] (006/669) Accurately ripped
10 [08b053c7] (006/666) Accurately ripped
11 [81f08b91] (006/661) Accurately ripped
12 [776da5eb] (006/653) Accurately ripped
Offsetted by 18:
01 [d26606e6] (002/672) Accurately ripped
02 [51cf390c] (002/674) Accurately ripped
03 [a0f57c2b] (002/670) Accurately ripped
04 [8296c4f5] (002/669) Accurately ripped
05 [161d0da7] (002/669) Accurately ripped
06 [b9cec4d3] (002/665) Accurately ripped
07 [031adf55] (002/662) Accurately ripped
08 [b3e9e772] (002/665) Accurately ripped
09 [f41b6b38] (002/669) Accurately ripped
10 [15b7df2d] (002/666) Accurately ripped
11 [019f3242] (002/661) Accurately ripped
12 [398df058] (002/653) Accurately ripped
Offsetted by -2472:
01 [225e314e] (000/672) No match (V2 was not tested)
02 [48892700] (000/674) No match (V2 was not tested)
03 [348bec30] (000/670) No match (V2 was not tested)
04 [130dae3b] (000/669) No match (V2 was not tested)
05 [fd66bbb2] (000/669) No match (V2 was not tested)
06 [8cabd6f6] (000/665) No match (V2 was not tested)
07 [b5d40480] (000/662) No match (V2 was not tested)
08 [f2b7fad4] (000/665) No match (V2 was not tested)
09 [0095c6fa] (000/669) No match (V2 was not tested)
10 [c65d970f] (000/666) No match (V2 was not tested)
11 [0b27a984] (000/661) No match (V2 was not tested)
12 [79c53792] (000/653) No match (V2 was not tested)
Offsetted by -2069:
01 [3a5b2724] (000/672) No match (V2 was not tested)
02 [d6ab2d18] (000/674) No match (V2 was not tested)
03 [b6706ab5] (000/670) No match (V2 was not tested)
04 [28266cb9] (000/669) No match (V2 was not tested)
05 [68da4218] (000/669) No match (V2 was not tested)
06 [f365bbf5] (000/665) No match (V2 was not tested)
07 [c222434f] (000/662) No match (V2 was not tested)
08 [551d7971] (000/665) No match (V2 was not tested)
09 [75dcc9c8] (000/669) No match (V2 was not tested)
10 [1011ec50] (000/666) No match (V2 was not tested)
11 [177dd5f5] (000/661) No match (V2 was not tested)
12 [d82450bf] (000/653) No match (V2 was not tested)
Offsetted by -1951:
01 [77f6ab7e] (000/672) No match
02 [a8ee2efa] (000/674) No match
03 [8b9d57e4] (000/670) No match
04 [c263b0e6] (000/669) No match
05 [3955671e] (002/669) Accurately ripped
06 [fb64da0a] (000/665) No match
07 [95c10113] (000/662) No match
08 [6e390ba8] (000/665) No match
09 [73cc1d63] (000/669) No match
10 [97f6accd] (000/666) No match
11 [4e8ecf47] (000/661) No match
12 [ab5b79c9] (000/653) No match
Offsetted by -1644:
01 [aabaff6c] (000/672) No match (V2 was not tested)
02 [484205ba] (000/674) No match (V2 was not tested)
03 [fe0e5499] (000/670) No match (V2 was not tested)
04 [88e6552b] (000/669) No match (V2 was not tested)
05 [31fbffd9] (000/669) No match (V2 was not tested)
06 [2da133b1] (000/665) No match (V2 was not tested)
07 [30c9bce1] (000/662) No match (V2 was not tested)
08 [407c7cc2] (000/665) No match (V2 was not tested)
09 [fa2f418a] (000/669) No match (V2 was not tested)
10 [cb1366c9] (000/666) No match (V2 was not tested)
11 [ca4c5398] (000/661) No match (V2 was not tested)
12 [a7a7bb56] (000/653) No match (V2 was not tested)
Offsetted by -1470:
01 [2d2cb048] (000/672) No match (V2 was not tested)
02 [8c3af84a] (000/674) No match (V2 was not tested)
03 [acbc7031] (000/670) No match (V2 was not tested)
04 [07996267] (000/669) No match (V2 was not tested)
05 [b073e857] (000/669) No match (V2 was not tested)
06 [b86f9cb7] (000/665) No match (V2 was not tested)
07 [7460c0de] (000/662) No match (V2 was not tested)
08 [8f514cba] (000/665) No match (V2 was not tested)
09 [9880b2bd] (000/669) No match (V2 was not tested)
10 [c7d7107f] (000/666) No match (V2 was not tested)
11 [c0610452] (000/661) No match (V2 was not tested)
12 [c969e228] (000/653) No match (V2 was not tested)
Offsetted by -1415:
01 [ebac3dce] (003/672) Accurately ripped
02 [38189eda] (003/674) Accurately ripped
03 [59f33338] (003/670) Accurately ripped
04 [ee3ccaea] (003/669) Accurately ripped
05 [1f0c9176] (003/669) Accurately ripped
06 [dbd9c99b] (003/665) Accurately ripped
07 [c9905c01] (003/662) Accurately ripped
08 [dc500dc6] (003/665) Accurately ripped
09 [119f2ecf] (003/669) Accurately ripped
10 [c4648644] (003/666) Accurately ripped
11 [e08dcf4f] (003/661) Accurately ripped
12 [e444adb1] (000/653) No match (V2 was not tested)
Offsetted by -1402:
01 [06668398] (000/672) No match (V2 was not tested)
02 [2a0416a2] (000/674) No match (V2 was not tested)
03 [9947dd0e] (000/670) No match (V2 was not tested)
04 [25d8d60a] (000/669) No match (V2 was not tested)
05 [4bcee7fb] (000/669) No match (V2 was not tested)
06 [61d2562f] (000/665) No match (V2 was not tested)
07 [10c039df] (000/662) No match (V2 was not tested)
08 [693edd16] (000/665) No match (V2 was not tested)
09 [af94c98b] (000/669) No match (V2 was not tested)
10 [6abb9d1c] (000/666) No match (V2 was not tested)
11 [f177d0be] (000/661) No match (V2 was not tested)
12 [84373ae4] (000/653) No match (V2 was not tested)
Offsetted by -1364:
01 [19ad7cdc] (000/672) No match (V2 was not tested)
02 [b38b377a] (000/674) No match (V2 was not tested)
03 [8e62c680] (000/670) No match (V2 was not tested)
04 [cdf38e6c] (000/669) No match (V2 was not tested)
05 [9390d131] (000/669) No match (V2 was not tested)
06 [23e4ef51] (000/665) No match (V2 was not tested)
07 [1cd1ba8a] (000/662) No match (V2 was not tested)
08 [ebba773a] (000/665) No match (V2 was not tested)
09 [4b17faa5] (000/669) No match (V2 was not tested)
10 [ae21d04d] (000/666) No match (V2 was not tested)
11 [855ee8a0] (000/661) No match (V2 was not tested)
12 [305eb03e] (000/653) No match (V2 was not tested)
Offsetted by -1338:
01 [16e858e1] (000/672) No match (V2 was not tested)
02 [97cd20d9] (000/674) No match (V2 was not tested)
03 [5e2f29eb] (000/670) No match (V2 was not tested)
04 [3ff399a5] (000/669) No match (V2 was not tested)
05 [ed157e3b] (000/669) No match (V2 was not tested)
06 [4ca5ced2] (000/665) No match (V2 was not tested)
07 [d868dad3] (000/662) No match (V2 was not tested)
08 [4779ac65] (000/665) No match (V2 was not tested)
09 [cc2cabb3] (000/669) No match (V2 was not tested)
10 [14d4d542] (000/666) No match (V2 was not tested)
11 [a732eb7e] (000/661) No match (V2 was not tested)
12 [7043caa4] (000/653) No match (V2 was not tested)
Offsetted by -1329:
01 [6c055e8d] (000/672) No match (V2 was not tested)
02 [53868517] (000/674) No match (V2 was not tested)
03 [e638f8f6] (000/670) No match (V2 was not tested)
04 [673511c0] (000/669) No match (V2 was not tested)
05 [1fc36b5c] (000/669) No match (V2 was not tested)
06 [17fcc91f] (000/665) No match (V2 was not tested)
07 [2a6e2211] (000/662) No match (V2 was not tested)
08 [98e6ff02] (000/665) No match (V2 was not tested)
09 [ac0fd25d] (000/669) No match (V2 was not tested)
10 [cd782386] (000/666) No match (V2 was not tested)
11 [3cc13b41] (000/661) No match (V2 was not tested)
12 [41758edb] (000/653) No match
Offsetted by -1297:
01 [98181df9] (000/672) No match (V2 was not tested)
02 [0cfb04ab] (000/674) No match
03 [4b5bb8dd] (000/670) No match
04 [f22663f9] (000/669) No match
05 [f066b67c] (000/669) No match
06 [a9523dc9] (000/665) No match
07 [ac3671f7] (000/662) No match
08 [6b94a8c4] (000/665) No match
09 [fc4ddd0d] (000/669) No match
10 [b19ca3c4] (000/666) No match
11 [179ec8a1] (000/661) No match
12 [b77bd6bb] (000/653) No match
Offsetted by -1218:
01 [ce18672d] (000/672) No match (V2 was not tested)
02 [f8ffd3fd] (000/674) No match (V2 was not tested)
03 [965773e2] (000/670) No match (V2 was not tested)
04 [663ed056] (000/669) No match (V2 was not tested)
05 [3b79d7f3] (000/669) No match (V2 was not tested)
06 [5316cc21] (000/665) No match (V2 was not tested)
07 [dbca0562] (000/662) No match (V2 was not tested)
08 [28ffcb16] (000/665) No match (V2 was not tested)
09 [b49299b4] (000/669) No match (V2 was not tested)
10 [fa8c7f16] (000/666) No match (V2 was not tested)
11 [1bf1bda6] (000/661) No match (V2 was not tested)
12 [aadb582c] (000/653) No match (V2 was not tested)
Offsetted by -1066:
01 [f1bff726] (011/672) Accurately ripped
02 [f3dab0b4] (012/674) Accurately ripped
03 [2cd00b03] (012/670) Accurately ripped
04 [f71b77ed] (012/669) Accurately ripped
05 [5a817ccb] (012/669) Accurately ripped
06 [8e7df150] (012/665) Accurately ripped
07 [f05980c9] (012/662) Accurately ripped
08 [58c62a6e] (012/665) Accurately ripped
09 [6bbdd050] (012/669) Accurately ripped
10 [38a043d4] (012/666) Accurately ripped
11 [6b8e1d2e] (000/661) No match (V2 was not tested)
12 [5b792d94] (012/653) Accurately ripped
Offsetted by -978:
01 [0e98d528] (000/672) No match (V2 was not tested)
02 [889fa4e2] (000/674) No match (V2 was not tested)
03 [13f26e9a] (000/670) No match (V2 was not tested)
04 [17fd0046] (000/669) No match (V2 was not tested)
05 [d8428b63] (000/669) No match (V2 was not tested)
06 [8bfca4b1] (000/665) No match (V2 was not tested)
07 [85bc0c61] (000/662) No match (V2 was not tested)
08 [6fde0005] (000/665) No match (V2 was not tested)
09 [e8b0a19b] (000/669) No match (V2 was not tested)
10 [48364a69] (000/666) No match (V2 was not tested)
11 [056f61f6] (000/661) No match (V2 was not tested)
12 [200a733c] (000/653) No match (V2 was not tested)
Offsetted by -865:
01 [07f4d621] (000/672) No match (V2 was not tested)
02 [95e7f163] (002/674) Accurately ripped
03 [7105bb32] (000/670) No match (V2 was not tested)
04 [ae5e7af4] (000/669) No match (V2 was not tested)
05 [71032cac] (000/669) No match (V2 was not tested)
06 [243fc661] (000/665) No match (V2 was not tested)
07 [c137add7] (000/662) No match (V2 was not tested)
08 [0a5da823] (000/665) No match (V2 was not tested)
09 [08b61c7a] (000/669) No match (V2 was not tested)
10 [d778b4a4] (000/666) No match (V2 was not tested)
11 [224dbd31] (000/661) No match (V2 was not tested)
12 [f0d0a10b] (000/653) No match
Offsetted by -806:
01 [7ca8d999] (000/672) No match (V2 was not tested)
02 [6acb4829] (000/674) No match (V2 was not tested)
03 [2068280f] (000/670) No match (V2 was not tested)
04 [e69a7639] (000/669) No match (V2 was not tested)
05 [d9b03f2f] (000/669) No match (V2 was not tested)
06 [ecd77f20] (000/665) No match (V2 was not tested)
07 [d9e88ebc] (000/662) No match (V2 was not tested)
08 [6564b8c5] (000/665) No match (V2 was not tested)
09 [1760c9ad] (000/669) No match (V2 was not tested)
10 [b9a7c979] (000/666) No match (V2 was not tested)
11 [bdd639da] (000/661) No match (V2 was not tested)
12 [da6c3590] (000/653) No match (V2 was not tested)
Offsetted by -779:
01 [e253e368] (000/672) No match (V2 was not tested)
02 [989e5318] (000/674) No match (V2 was not tested)
03 [771bd6bf] (000/670) No match (V2 was not tested)
04 [78f287db] (000/669) No match (V2 was not tested)
05 [71ba0692] (000/669) No match (V2 was not tested)
06 [3fcb6c3b] (000/665) No match (V2 was not tested)
07 [4e9872bb] (000/662) No match (V2 was not tested)
08 [90260ecf] (000/665) No match (V2 was not tested)
09 [16a3e5c6] (000/669) No match (V2 was not tested)
10 [4e3f8f4e] (000/666) No match (V2 was not tested)
11 [7e812923] (000/661) No match (V2 was not tested)
12 [4e018235] (000/653) No match (V2 was not tested)
More than 16 offsets match!

Track Peak [ CRC32 ] [W/O NULL] [ LOG ]
– 98,8 [9DD40866] [2B424ECE] CRC32
01 88,1 [29518CE5] [1BBBE405]
02 98,8 [76FB4F93] [B538E59B]
03 98,8 [C8245C2C] [C3340E29]
04 98,8 [23ACFC3E] [340AD312]
05 98,8 [BCB60A32] [0A1AFFA1]
06 93,3 [86583E54] [0124122D]
07 98,8 [9033A614] [00CB2484]
08 98,8 [A500A340] [679D9A4C]
09 98,8 [6A9B9856] [F7374D4E]
10 98,8 [63BF70C2] [DA40E716]
11 98,8 [DE1E2A73] [A9D8422D]
12 98,8 [2BC3CEDB] [8396D836]

Thx to squirr

B.B. King & Eric Clapton – Riding With The King (2000) REPOST Download, Warez, DDL, Free, Full Album, Torrent, Legal.

Download