Avey Tare – Eucalyptus (2017)

Download
Avey Tare - Eucalyptus (2017)

Avey Tare – Eucalyptus
XLD Rip | FLAC (tracks)+cue, log, front cover | 62:14 min | 348 MB
Label: Domino – WIG 393 | Tracks: 15 | Rls.date: 2017
Psychedelic, Experimental, Freak Folk

Eucalyptus is the new studio album written and produced by Animal Collective’s Avey Tare. Conceived on Hawaiian mornings, written on a sunlit bedroom afternoon in Los Angeles, practiced in the dark early hours of the California twilight, recommended listening for dawn or dusk. Recorded by Animal Collective’s Deakin (Josh Dibb), featuring chamber orchestration arranged by Eyvind Kang, musicians Angel Deradoorian and Jessika Kenney, Eucalyptus is an immersive album length electroacoustic movement through leaves, rocks and dust.

TRACKLIST
01. Season High 05:47
02. Melody Unfair 05:06
03. Ms. Secret 05:31
04. Lunch Out of Order Pt. 1 01:43
05. Lunch Out of Order Pt. 2 01:51
06. Jackson 5 03:46
07. DR aw one for J 03:11
08. PJ 04:12
09. In Pieces 03:04
10. Selection of A Place 06:06
11. Boat Race 02:15
12. Roamer 02:45
13. Coral Lords 08:02
14. Sports In July 04:46
15. When You Left Me 04:11

XLD Log
X Lossless Decoder version 20151214 (149.1)

XLD extraction logfile from 2017-07-21 01:03:24 -0400

Avey Tare / Eucalyptus

Used drive : MATSHITA DVD-R UJ-8A8 (revision HA13)
Media type : Pressed CD

Ripper mode : XLD Secure Ripper
Disable audio cache : OK for the drive with a cache less than 1375KiB
Make use of C2 pointers : NO
Read offset correction : 102
Max retry count : 100
Gap status : Analyzed, Appended (except HTOA)

TOC of the extracted CD
Track | Start | Length | Start sector | End sector
––––––––––––––––––––––––––––-
1 | 00:00:00 | 05:46:70 | 0 | 26019
2 | 05:46:70 | 05:06:49 | 26020 | 49018
3 | 10:53:44 | 05:31:27 | 49019 | 73870
4 | 16:24:71 | 01:43:12 | 73871 | 81607
5 | 18:08:08 | 01:51:03 | 81608 | 89935
6 | 19:59:11 | 03:46:36 | 89936 | 106921
7 | 23:45:47 | 03:11:19 | 106922 | 121265
8 | 26:56:66 | 04:12:06 | 121266 | 140171
9 | 31:08:72 | 03:04:57 | 140172 | 154028
10 | 34:13:54 | 06:06:62 | 154029 | 181540
11 | 40:20:41 | 02:15:26 | 181541 | 191691
12 | 42:35:67 | 02:45:37 | 191692 | 204103
13 | 45:21:29 | 08:02:04 | 204104 | 240257
14 | 53:23:33 | 04:45:71 | 240258 | 261703
15 | 58:09:29 | 04:11:51 | 261704 | 280579

AccurateRip Summary
Disc not found in AccurateRip DB.

All Tracks
Album gain : -9.47 dB
Peak : 1.000000
Statistics
Read error : 0
Jitter error (maybe fixed) : 0
Retry sector count : 0
Damaged sector count : 0

Track 01
Filename : /Users/baconfat/Desktop/XLD rips/Avey Tare – Eucalyptus (2017) [FLAC]/01 Season High.flac
Pre-gap length : 00:02:00

Track gain : -10.37 dB
Peak : 0.987335
CRC32 hash (test run) : E83B19EA
CRC32 hash : E83B19EA
CRC32 hash (skip zero) : 26414890
AccurateRip v1 signature : 9F7E54CF
AccurateRip v2 signature : F8FDD08F
->Track not present in AccurateRip database.
Statistics
Read error : 0
Jitter error (maybe fixed) : 0
Retry sector count : 0
Damaged sector count : 0

Track 02
Filename : /Users/baconfat/Desktop/XLD rips/Avey Tare – Eucalyptus (2017) [FLAC]/02 Melody Unfair.flac

Track gain : -8.49 dB
Peak : 0.978638
CRC32 hash (test run) : 63EE1DCD
CRC32 hash : 63EE1DCD
CRC32 hash (skip zero) : 0F69505A
AccurateRip v1 signature : E15F5162
AccurateRip v2 signature : D19B8549
->Track not present in AccurateRip database.
Statistics
Read error : 0
Jitter error (maybe fixed) : 0
Retry sector count : 0
Damaged sector count : 0

Track 03
Filename : /Users/baconfat/Desktop/XLD rips/Avey Tare – Eucalyptus (2017) [FLAC]/03 Ms. Secret.flac

Track gain : -10.06 dB
Peak : 0.977661
CRC32 hash (test run) : 066AD446
CRC32 hash : 066AD446
CRC32 hash (skip zero) : 2AA48AAC
AccurateRip v1 signature : 1500EE8E
AccurateRip v2 signature : 0315E7DF
->Track not present in AccurateRip database.
Statistics
Read error : 0
Jitter error (maybe fixed) : 0
Retry sector count : 0
Damaged sector count : 0

Track 04
Filename : /Users/baconfat/Desktop/XLD rips/Avey Tare – Eucalyptus (2017) [FLAC]/04 Lunch Out of Order Pt. 1.flac

Track gain : -5.63 dB
Peak : 0.989075
CRC32 hash (test run) : 1C264797
CRC32 hash : 1C264797
CRC32 hash (skip zero) : 7B23A04E
AccurateRip v1 signature : 8CCD0D1C
AccurateRip v2 signature : BA0F4E9F
->Track not present in AccurateRip database.
Statistics
Read error : 0
Jitter error (maybe fixed) : 0
Retry sector count : 0
Damaged sector count : 0

Track 05
Filename : /Users/baconfat/Desktop/XLD rips/Avey Tare – Eucalyptus (2017) [FLAC]/05 Lunch Out of Order Pt. 2.flac

Track gain : -5.40 dB
Peak : 0.971527
CRC32 hash (test run) : E869E27A
CRC32 hash : E869E27A
CRC32 hash (skip zero) : 2D9F5B3D
AccurateRip v1 signature : 2825823D
AccurateRip v2 signature : 03CCA5DC
->Track not present in AccurateRip database.
Statistics
Read error : 0
Jitter error (maybe fixed) : 0
Retry sector count : 0
Damaged sector count : 0

Track 06
Filename : /Users/baconfat/Desktop/XLD rips/Avey Tare – Eucalyptus (2017) [FLAC]/06 Jackson 5.flac

Track gain : -9.52 dB
Peak : 0.981262
CRC32 hash (test run) : 0476BEF6
CRC32 hash : 0476BEF6
CRC32 hash (skip zero) : 8EE79FF1
AccurateRip v1 signature : 736FB6A1
AccurateRip v2 signature : FE85A7F1
->Track not present in AccurateRip database.
Statistics
Read error : 0
Jitter error (maybe fixed) : 0
Retry sector count : 0
Damaged sector count : 0

Track 07
Filename : /Users/baconfat/Desktop/XLD rips/Avey Tare – Eucalyptus (2017) [FLAC]/07 DR Aw One for J.flac

Track gain : -9.84 dB
Peak : 0.975006
CRC32 hash (test run) : 631B5311
CRC32 hash : 631B5311
CRC32 hash (skip zero) : 587CC7B4
AccurateRip v1 signature : D74CE958
AccurateRip v2 signature : 77F5FB6B
->Track not present in AccurateRip database.
Statistics
Read error : 0
Jitter error (maybe fixed) : 0
Retry sector count : 0
Damaged sector count : 0

Track 08
Filename : /Users/baconfat/Desktop/XLD rips/Avey Tare – Eucalyptus (2017) [FLAC]/08 PJ.flac

Track gain : -7.75 dB
Peak : 0.973480
CRC32 hash (test run) : 8B9BF7F7
CRC32 hash : 8B9BF7F7
CRC32 hash (skip zero) : 9A632D1F
AccurateRip v1 signature : D8CED83B
AccurateRip v2 signature : 9199FAF1
->Track not present in AccurateRip database.
Statistics
Read error : 0
Jitter error (maybe fixed) : 0
Retry sector count : 0
Damaged sector count : 0

Track 09
Filename : /Users/baconfat/Desktop/XLD rips/Avey Tare – Eucalyptus (2017) [FLAC]/09 In Pieces.flac

Track gain : -9.62 dB
Peak : 0.994751
CRC32 hash (test run) : BD67D8E8
CRC32 hash : BD67D8E8
CRC32 hash (skip zero) : 4BB53040
AccurateRip v1 signature : DB04A8D9
AccurateRip v2 signature : 9B20E283
->Track not present in AccurateRip database.
Statistics
Read error : 0
Jitter error (maybe fixed) : 0
Retry sector count : 0
Damaged sector count : 0

Track 10
Filename : /Users/baconfat/Desktop/XLD rips/Avey Tare – Eucalyptus (2017) [FLAC]/10 Selection of a Place.flac

Track gain : -8.29 dB
Peak : 0.976868
CRC32 hash (test run) : 4B7074F3
CRC32 hash : 4B7074F3
CRC32 hash (skip zero) : 466EEF63
AccurateRip v1 signature : 6C446CC1
AccurateRip v2 signature : F6D99669
->Track not present in AccurateRip database.
Statistics
Read error : 0
Jitter error (maybe fixed) : 0
Retry sector count : 0
Damaged sector count : 0

Track 11
Filename : /Users/baconfat/Desktop/XLD rips/Avey Tare – Eucalyptus (2017) [FLAC]/11 Boat Race.flac

Track gain : -9.88 dB
Peak : 1.000000
CRC32 hash (test run) : F4E5CAB4
CRC32 hash : F4E5CAB4
CRC32 hash (skip zero) : F01E2CC8
AccurateRip v1 signature : AE4A961F
AccurateRip v2 signature : 2F253ED9
->Track not present in AccurateRip database.
Statistics
Read error : 0
Jitter error (maybe fixed) : 0
Retry sector count : 0
Damaged sector count : 0

Track 12
Filename : /Users/baconfat/Desktop/XLD rips/Avey Tare – Eucalyptus (2017) [FLAC]/12 Roamer.flac

Track gain : -9.03 dB
Peak : 0.986664
CRC32 hash (test run) : 6E9DCCE9
CRC32 hash : 6E9DCCE9
CRC32 hash (skip zero) : A493CCF9
AccurateRip v1 signature : DEBDB61B
AccurateRip v2 signature : A2049A84
->Track not present in AccurateRip database.
Statistics
Read error : 0
Jitter error (maybe fixed) : 0
Retry sector count : 0
Damaged sector count : 0

Track 13
Filename : /Users/baconfat/Desktop/XLD rips/Avey Tare – Eucalyptus (2017) [FLAC]/13 Coral Lords.flac

Track gain : -8.93 dB
Peak : 0.993378
CRC32 hash (test run) : 7173A62B
CRC32 hash : 7173A62B
CRC32 hash (skip zero) : 8C00A9A1
AccurateRip v1 signature : 645C6BC9
AccurateRip v2 signature : B9D99019
->Track not present in AccurateRip database.
Statistics
Read error : 0
Jitter error (maybe fixed) : 0
Retry sector count : 0
Damaged sector count : 0

Track 14
Filename : /Users/baconfat/Desktop/XLD rips/Avey Tare – Eucalyptus (2017) [FLAC]/14 Sports in July.flac

Track gain : -8.68 dB
Peak : 0.983948
CRC32 hash (test run) : D61B56EC
CRC32 hash : D61B56EC
CRC32 hash (skip zero) : AD003D48
AccurateRip v1 signature : B08F84A6
AccurateRip v2 signature : 341CA0C1
->Track not present in AccurateRip database.
Statistics
Read error : 0
Jitter error (maybe fixed) : 0
Retry sector count : 0
Damaged sector count : 0

Track 15
Filename : /Users/baconfat/Desktop/XLD rips/Avey Tare – Eucalyptus (2017) [FLAC]/15 When You Left Me.flac

Track gain : -9.42 dB
Peak : 0.987854
CRC32 hash (test run) : 51398908
CRC32 hash : 51398908
CRC32 hash (skip zero) : CCF9D6AB
AccurateRip v1 signature : 86441A8E
AccurateRip v2 signature : 411ABA04
->Track not present in AccurateRip database.
Statistics
Read error : 0
Jitter error (maybe fixed) : 0
Retry sector count : 0
Damaged sector count : 0

No errors occurred

End of status report

––-BEGIN XLD SIGNATURE––-
MDgGFWTgYEZ2sDosSwh7nrrtTncI6eHxbs5uVv8TtW8v_zXw.emOtekp4GQ4P9d1T_oRjYNX0ZdjDJPPKscNrKEAARzghyP1KhDVNNW
––-END XLD SIGNATURE––-

Thanks to the Original customer.

Avey Tare – Eucalyptus (2017) Download, Warez, DDL, Free, Full Album, Torrent, Legal.

Download