Ave Sol – Arias for All (2017)

Download
Ave Sol - Arias for All (2017)

Ave Sol – Arias for All
EAC Rip | FLAC (tracks)+cue, log, m3u, d. booklet | 43:18 min | 180 MB
Label: Sony Classical | Tracks: 12 | Rls.date: 2017
Classical, Vocal

Ave Sol is acknowledged as one of the most versatile and innovative choirs in the world. For over 45 years this ensemble has championed contemporary composers and performed the great choral repertoire to huge acclaim. The members come from all walks of life and are united by their intense love of music and the sheer joy of singing together. This unique album features many of the greatest opera arias and duets, but these immortal melodies have been given a unique twist in stunning new choral arrangements. For the first time these world famous pieces are performed not by great sopranos and tenors of our day, but by the dedicated members of the chorus; performers who ordinarily would never get to display their special affinity with this music.

TRACKLIST
01. Turandot, Act III: Nessun dorma (Arr. for Choir) – Ave Sol & Julian Reynolds
02. Samson et Dalila, Op. 47, Act II: Mon coeur s’ouvre à ta voix (Arr. for Choir) – Ave Sol & Julian Reynolds
03. Aida, Act I: Celeste Aida (Arr. for Choir) – Ave Sol & Julian Reynolds
04. Les contes d’Hoffmann, Act II: Barcarolle (Arr. for Choir) – Ave Sol & Julian Reynolds
05. Lakmé, Act I: Dôme épais le jasmin-Flower Duet (Arr. for Choir) – Ave Sol & Julian Reynolds
06. Les pêcheurs de perles, GB 4, WD 13, Act I: Au fond du temple saint (Arr. for Choir) – Ave Sol & Julian Reynolds
07. Carmen, GB 9, WD 31, Act I: L’amour est un oiseau rebelle-Habanera (Arr. for Choir) – Ave Sol & Julian Reynolds
08. L’elisir d’amore, Act II: Una furtiva lagrima (Arr. for Choir) – Ave Sol & Julian Reynolds
09. Lucia di Lammermoor, Act II: Chi mi frena in tal momento (Arr. for Choir) – Ave Sol & Julian Reynolds
10. Serse, HWV 40, Act I: Ombra mai fù (Arr. for Choir) – Ave Sol & Julian Reynolds
11. La traviata, Act III: Addio del passato (Arr. for Choir) – Ave Sol & Julian Reynolds
12. La traviata, Act I: Libiamo ne’lieti calici-Brindisi (Arr. for Choir) – Ave Sol & Julian Reynolds

EAC Log
Exact Audio Copy V1.3 from 2. September 2016

EAC extraction logfile from 9. July 2017, 12:15

Ave Sol / Latvian Opera Orchestra/ Julian Reynolds / Arias For All

Used drive : ATAPI DVD A DH16AAL Adapter: 1 ID: 0

Read mode : Secure
Utilize accurate stream : Yes
Defeat audio cache : Yes
Make use of C2 pointers : No

Read offset correction : 6
Overread into Lead-In and Lead-Out : No
Fill up missing offset samples with silence : Yes
Delete leading and trailing silent blocks : No
Null samples used in CRC calculations : Yes
Used interface : Native Win32 interface for Win NT & 2000
Gap handling : Appended to previous track

Used output format : User Defined Encoder
Selected bitrate : 1024 kBit/s
Quality : High
Add ID3 tag : No
Command line compressor : C:Program Files (x86)Exact Audio CopyFlacflac.exe
Additional command line options : -8 -e -p -V -T "ARTIST=%artist%" -T "TITLE=%title%" -T "ALBUM=%albumtitle%" -T "DATE=%year%" -T "TRACKNUMBER=%tracknr%" -T "GENRE=%genre%" -T "PERFORMER=%albuminterpret%" -T "COMPOSER=%composer%" %haslyrics%–tag-from-file=LYRICS="%lyricsfile%"%haslyrics% -T "ALBUMARTIST=%albumartist%" -T "DISCNUMBER=%cdnumber%" -T "TOTALDISCS=%totalcds%" -T "TOTALTRACKS=%numtracks%" -T "COMMENT=%comment%" %source% -o %dest%

TOC of the extracted CD

Track | Start | Length | Start sector | End sector
––––––––––––––––––––––––––––-
1 | 0:00.00 | 3:33.19 | 0 | 15993
2 | 3:33.19 | 5:11.49 | 15994 | 39367
3 | 8:44.68 | 3:49.39 | 39368 | 56581
4 | 12:34.32 | 3:31.49 | 56582 | 72455
5 | 16:06.06 | 3:18.57 | 72456 | 87362
6 | 19:24.63 | 3:12.15 | 87363 | 101777
7 | 22:37.03 | 4:20.67 | 101778 | 121344
8 | 26:57.70 | 3:33.02 | 121345 | 137321
9 | 30:30.72 | 3:23.47 | 137322 | 152593
10 | 33:54.44 | 3:09.53 | 152594 | 166821
11 | 37:04.22 | 3:12.48 | 166822 | 181269
12 | 40:16.70 | 3:07.45 | 181270 | 195339

Track 1

Filename C:ZelouEAC RipsAve Sol – Arias For All (2017) [FLAC] {88985370282}1 – Turandot, Act III- ”Nessun dorma”.wav

Pre-gap length 0:00:02.00

Peak level 99.2 %
Extraction speed 1.7 X
Track quality 100.0 %
Test CRC F7F7F1E9
Copy CRC F7F7F1E9
Track not present in AccurateRip database
Copy OK

Track 2

Filename C:ZelouEAC RipsAve Sol – Arias For All (2017) [FLAC] {88985370282}2 – Samson et Dalila, Act II- ”Mon coeur s’ouvre à ta voix”.wav

Peak level 99.1 %
Extraction speed 2.1 X
Track quality 100.0 %
Test CRC 5B6D73BF
Copy CRC 5B6D73BF
Track not present in AccurateRip database
Copy OK

Track 3

Filename C:ZelouEAC RipsAve Sol – Arias For All (2017) [FLAC] {88985370282}3 – Aida, Act I- ”Celeste Aida”.wav

Peak level 99.4 %
Extraction speed 2.2 X
Track quality 100.0 %
Test CRC CAE9D065
Copy CRC CAE9D065
Track not present in AccurateRip database
Copy OK

Track 4

Filename C:ZelouEAC RipsAve Sol – Arias For All (2017) [FLAC] {88985370282}4 – Les contes d’Hoffmann, Act II- Barcarolle.wav

Peak level 77.2 %
Extraction speed 2.3 X
Track quality 100.0 %
Test CRC 38A9597D
Copy CRC 38A9597D
Track not present in AccurateRip database
Copy OK

Track 5

Filename C:ZelouEAC RipsAve Sol – Arias For All (2017) [FLAC] {88985370282}5 – Lakmé, Act I- ”Dôme épais le jasmin” (Flower Duet).wav

Peak level 99.2 %
Extraction speed 2.4 X
Track quality 100.0 %
Test CRC A0CA7D57
Copy CRC A0CA7D57
Track not present in AccurateRip database
Copy OK

Track 6

Filename C:ZelouEAC RipsAve Sol – Arias For All (2017) [FLAC] {88985370282}6 – Les pêcheurs de perles, Act I- ”Au fond du temple saint”.wav

Peak level 99.2 %
Extraction speed 1.7 X
Track quality 99.9 %
Test CRC 8C713A3E
Copy CRC 8C713A3E
Track not present in AccurateRip database
Copy OK

Track 7

Filename C:ZelouEAC RipsAve Sol – Arias For All (2017) [FLAC] {88985370282}7 – Carmen, Act I- ”L’amour est un oiseau rebelle” (Habanera).wav

Peak level 99.2 %
Extraction speed 2.7 X
Track quality 100.0 %
Test CRC 35CEF7A4
Copy CRC 35CEF7A4
Track not present in AccurateRip database
Copy OK

Track 8

Filename C:ZelouEAC RipsAve Sol – Arias For All (2017) [FLAC] {88985370282}8 – ‘elisir d’amore, Act II- ”Una furtiva lagrima”.wav

Peak level 87.7 %
Extraction speed 2.8 X
Track quality 100.0 %
Test CRC 770E85A4
Copy CRC 770E85A4
Track not present in AccurateRip database
Copy OK

Track 9

Filename C:ZelouEAC RipsAve Sol – Arias For All (2017) [FLAC] {88985370282}9 – Lucia di Lammermoor, Act II- ”Chi mi frena in tal momento”.wav

Peak level 99.8 %
Extraction speed 2.9 X
Track quality 100.0 %
Test CRC 1C95C73A
Copy CRC 1C95C73A
Track not present in AccurateRip database
Copy OK

Track 10

Filename C:ZelouEAC RipsAve Sol – Arias For All (2017) [FLAC] {88985370282}10 – Serse, Act I- ”Ombra mai fù”.wav

Peak level 68.0 %
Extraction speed 3.0 X
Track quality 100.0 %
Test CRC A6931D0C
Copy CRC A6931D0C
Track not present in AccurateRip database
Copy OK

Track 11

Filename C:ZelouEAC RipsAve Sol – Arias For All (2017) [FLAC] {88985370282}11 – La traviata, Act III- ”Addio del passato”.wav

Peak level 80.9 %
Extraction speed 3.1 X
Track quality 100.0 %
Test CRC FD186E28
Copy CRC FD186E28
Track not present in AccurateRip database
Copy OK

Track 12

Filename C:ZelouEAC RipsAve Sol – Arias For All (2017) [FLAC] {88985370282}12 – La traviata, Act I- ”Libiamo ne’lieti calici” (Brindisi.wav

Peak level 99.2 %
Extraction speed 2.1 X
Track quality 99.9 %
Test CRC 258E0510
Copy CRC 258E0510
Track not present in AccurateRip database
Copy OK

None of the tracks are present in the AccurateRip database

No errors occurred

End of status report

–– CUETools DB Plugin V2.1.6

[CTDB TOCID: XMZqSxFXNrUyeoJKis8yYlpCc_o-] disk not present in database
Submit result: XMZqSxFXNrUyeoJKis8yYlpCc_o- has been uploaded

==== Log checksum FA8C15C7EB7853C840E4D1E269A6608353650DD47DE2B814CCF5D29E25797197 ====

Ave Sol - Arias for All (2017)
Thanks to the Original customer.

Ave Sol – Arias for All (2017) Download, Warez, DDL, Free, Full Album, Torrent, Legal.

Download