Attitude – Pump The Nation (1983) [2008 FTG]

Download
Attitude - Pump The Nation (1983) [2008 FTG]

Attitude – Pump The Nation (1983) [2008 FTG]
EAC Rip | FLAC (Image) +CUE, LOG | 351 MB | Covers Included
Genre: Soul, Funk, Disco | Label: Funky Town Grooves | Catalog Number: FTG-156

Attitude had 1 solo release, On lead vocals were Cindy Mizelle, the album was produced by the guys of The System (Mic Murphy & David Frank). Most disco funk lovers recognize the single ‘Pump the nation’ from the dancefloors in 1983. The musicians/singers involved on the album were of a high standard and included LaLa, Bernard Fowler, Lisa Fischer. The other 2 members of the group were also highly regarded musicians Paul Pesco and Khris Kellow.

EAC Log
Exact Audio Copy V1.0 beta 3 from 29. August 2011

EAC extraction logfile from 2. December 2012, 15:20

Attitude / Pump The Nation

Used drive : PIONEER DVD-RW DVR-212 Adapter: 2 ID: 0

Read mode : Secure
Utilize accurate stream : Yes
Defeat audio cache : Yes
Make use of C2 pointers : No

Read offset correction : 48
Overread into Lead-In and Lead-Out : No
Fill up missing offset samples with silence : Yes
Delete leading and trailing silent blocks : No
Null samples used in CRC calculations : Yes
Used interface : Native Win32 interface for Win NT & 2000

Used output format : User Defined Encoder
Selected bitrate : 896 kBit/s
Quality : High
Add ID3 tag : Yes
Command line compressor : C:Program FilesFLACflac.exe
Additional command line options : -V -8 -T "Date=%year%" -T "Genre=%genre%" %source%

TOC of the extracted CD

Track | Start | Length | Start sector | End sector
––––––––––––––––––––––––––––-
1 | 0:00.00 | 5:55.09 | 0 | 26633
2 | 5:55.09 | 5:02.54 | 26634 | 49337
3 | 10:57.63 | 5:57.66 | 49338 | 76178
4 | 16:55.54 | 5:12.20 | 76179 | 99598
5 | 22:07.74 | 5:15.21 | 99599 | 123244
6 | 27:23.20 | 5:19.68 | 123245 | 147237
7 | 32:43.13 | 4:52.34 | 147238 | 169171
8 | 37:35.47 | 6:33.12 | 169172 | 198658
9 | 44:08.59 | 5:51.61 | 198659 | 225044

Range status and errors

Selected range

Filename E:Import CDAttitude – Pump The Nation.wav

Peak level 99.9 %
Extraction speed 7.0 X
Range quality 99.9 %
Test CRC D47356AD
Copy CRC D47356AD
Copy OK

No errors occurred

AccurateRip summary

Track 1 accurately ripped (confidence 2) [ECDEF8B2] (AR v1)
Track 2 accurately ripped (confidence 2) [AB672A13] (AR v1)
Track 3 accurately ripped (confidence 2) [34B0516C] (AR v1)
Track 4 accurately ripped (confidence 2) [910D6CC1] (AR v1)
Track 5 accurately ripped (confidence 2) [DFBCC4DD] (AR v1)
Track 6 accurately ripped (confidence 2) [3B76D441] (AR v1)
Track 7 accurately ripped (confidence 2) [0E9F21B1] (AR v1)
Track 8 accurately ripped (confidence 2) [BF1A6EBC] (AR v1)
Track 9 accurately ripped (confidence 2) [E71F1446] (AR v1)

All tracks accurately ripped

End of status report

==== Log checksum 3456B3DAB082ED065BC3CD49EFAE5FA41067EFEC9CF793F100FC3103AEF3FC1F ====

Tracklist:
01. Pump The Nation [0:05:55.12]
02. I Wanna Get To Know You Better [0:05:02.72]
03. Love Me Tonight [0:05:57.88]
04. We Got The Juice [0:05:12.26]
05. If You Could Read My Mind [0:05:15.28]
06. It’s Good For Me [0:05:19.90]
07. We’re Gonig Off [0:04:52.45]
Bonus tracks:
08. Pump The Nation (Extended Version) [0:06:33.16]
09. We Got The Juice (Dub Version) [0:05:51.81]

Personnel:
Producer – David Frank, Mic Murphy
Executive Producer – Matt Murphy, Tony Calvert
Remastered By [Re-mastering & Restoration] – Donald Cleveland

Backing Vocals – Bernard Fowler, LaLa*, Lisa Fischer
Guitar – Paul Pesco
Keyboards – Khris Kellow
Lead Vocals – Cindy Mizelle, Khris Kellow
Vocals – Stephen Miller

Attitude – Pump The Nation (1983) [2008 FTG] Download, Warez, DDL, Free, Full Album, Torrent, Legal.

Download