Astrowind – Kaidanovsky (2012)

Download
Astrowind - Kaidanovsky (2012)

Astrowind – Kaidanovsky (2012)
EAC Rip | FLAC (image+.cue+log) – 404 MB | MP3 CBR 320 kbps (LAME 3.93) – 169 MB | Covers – 29 MB
Genre: Ambient | RAR 3% Rec. | Label: Greytone (grey010)

Astrowind’ Sound designer from Latvia Kriipis Tulo creates an amazing, deeply emotional and romantic music with help of vintage analog synthesizers and open-reel tape recorder. There is a feel of acroamatic escapism, there are these huge chords of hissing analogue synthesizers and you can even find this special kind of Slavonian melancholia (or Baltic, respectively) people use to rave about. Astrowind bring up a lot of references in their beautiful and, well, obsolete music. Astrowind Project got the harmonies and the sound to become one of the most interesting Baltic acts to emerge from a scene rich of innovative musicians (Muschraum, Joel Tammik, Selffish, to name just the most obvious).
This first Astrowind pro-CD album is a tribute to Aleksander Kaidanovsky, worldwide well known and seminal russian actor and film director. The album consists is eight tracks filled with mind-floating contructions and de-contructions that will bring the listener to a wider dimension. ”Kaidanovsky” sounds like an oppressive, yet captivating, music experience surfing from a lysergic and mutant electronic textures to a degraded samples and hypnotic voices of the universe. A really amazing and impressive album for one of the most talented artist coming from baltic area.

Tracklist:
01. The Guest
02. The Station Where Trains Never Stop
03. Mirages
04. Stalker’s Dreams
05. The Ascent To The Eckhart
06. The Garden Of Forking Paths
07. A Simple Death
08. Standing At The Threshold

Total time: 01:11:40

EAC log
Exact Audio Copy V1.0 beta 2 from 29. April 2011

EAC extraction logfile from 11. May 2012, 10:08

Astrowind / Kaidanovsky

Used drive : Optiarc DVD RW AD-7240S Adapter: 2 ID: 0

Read mode : Secure
Utilize accurate stream : Yes
Defeat audio cache : Yes
Make use of C2 pointers : No

Read offset correction : 48
Overread into Lead-In and Lead-Out : No
Fill up missing offset samples with silence : Yes
Delete leading and trailing silent blocks : No
Null samples used in CRC calculations : Yes
Used interface : Installed external ASPI interface
Gap handling : Appended to previous track

Used output format : User Defined Encoder
Selected bitrate : 128 kBit/s
Quality : High
Add ID3 tag : No
Command line compressor : C:Program FilesExact Audio CopyFLACFLAC.EXE
Additional command line options : -8 -V -T "ARTIST=%artist%" -T "TITLE=%title%" -T "ALBUM=%albumtitle%" -T "DATE=%year%" -T "TRACKNUMBER=%tracknr%" -T "GENRE=%genre%" -T "COMMENT=%comment%" -T "BAND=%albuminterpret%" -T "COMPOSER=%composer%" %haslyrics%–ta

TOC of the extracted CD

Track | Start | Length | Start sector | End sector
––––––––––––––––––––––––––––-
1 | 0:00.00 | 1:49.01 | 0 | 8175
2 | 1:49.01 | 7:47.74 | 8176 | 43274
3 | 9:37.00 | 7:45.52 | 43275 | 78201
4 | 17:22.52 | 8:01.43 | 78202 | 114319
5 | 25:24.20 | 11:55.02 | 114320 | 167946
6 | 37:19.22 | 12:57.71 | 167947 | 226292
7 | 50:17.18 | 11:14.00 | 226293 | 276842
8 | 61:31.18 | 10:09.37 | 276843 | 322554

Track 1

Filename C:Astrowind (2012) – Kaidanovsky1 The Guest.wav

Pre-gap length 0:00:02.00

Peak level 99.6 %
Extraction speed 2.1 X
Track quality 100.0 %
Test CRC EF3CCFDC
Copy CRC EF3CCFDC
Track not present in AccurateRip database
Copy OK

Track 2

Filename C:Astrowind (2012) – Kaidanovsky2 The Station Where Trains Never Stop.wav

Pre-gap length 0:00:02.00

Peak level 100.0 %
Extraction speed 2.9 X
Track quality 100.0 %
Test CRC 69E7E820
Copy CRC 69E7E820
Track not present in AccurateRip database
Copy OK

Track 3

Filename C:Astrowind (2012) – Kaidanovsky3 Mirages.wav

Pre-gap length 0:00:02.00

Peak level 100.0 %
Extraction speed 3.4 X
Track quality 100.0 %
Test CRC 6925A4F3
Copy CRC 6925A4F3
Track not present in AccurateRip database
Copy OK

Track 4

Filename C:Astrowind (2012) – Kaidanovsky4 Stalkers Dreams.wav

Pre-gap length 0:00:02.00

Peak level 100.0 %
Extraction speed 3.8 X
Track quality 100.0 %
Test CRC 1AFF278A
Copy CRC 1AFF278A
Track not present in AccurateRip database
Copy OK

Track 5

Filename C:Astrowind (2012) – Kaidanovsky5 The Ascent To The Eckhart.wav

Pre-gap length 0:00:02.00

Peak level 100.0 %
Extraction speed 4.4 X
Track quality 100.0 %
Test CRC 43129917
Copy CRC 43129917
Track not present in AccurateRip database
Copy OK

Track 6

Filename C:Astrowind (2012) – Kaidanovsky6 The Garden Of Forking Paths.wav

Pre-gap length 0:00:02.00

Peak level 99.5 %
Extraction speed 4.9 X
Track quality 100.0 %
Test CRC 133D4952
Copy CRC 133D4952
Track not present in AccurateRip database
Copy OK

Track 7

Filename C:Astrowind (2012) – Kaidanovsky7 A Simple Death.wav

Pre-gap length 0:00:02.00

Peak level 99.4 %
Extraction speed 5.4 X
Track quality 100.0 %
Test CRC 90EEC98C
Copy CRC 90EEC98C
Track not present in AccurateRip database
Copy OK

Track 8

Filename C:Astrowind (2012) – Kaidanovsky8 Standing At The Threshold.wav

Pre-gap length 0:00:02.00

Peak level 100.0 %
Extraction speed 5.7 X
Track quality 100.0 %
Test CRC 3CDF5CEC
Copy CRC 3CDF5CEC
Track not present in AccurateRip database
Copy OK

None of the tracks are present in the AccurateRip database

No errors occurred

End of status report

==== Log checksum 88E28E0060913BE81D2DA78C5458C13E799C4EE581799F7042BEC3962A700C13 ====

CUETools log
[CUETools log; Date: 30.07.2017 0:15:48; Version: 2.1.4]
[CTDB TOCID: FV1l.7mtarOPWfRKgUPt2drWgcc-] found.
Track | CTDB Status
1 | (1/1) Accurately ripped
2 | (1/1) Accurately ripped
3 | (1/1) Accurately ripped
4 | (1/1) Accurately ripped
5 | (1/1) Accurately ripped
6 | (1/1) Accurately ripped
7 | (1/1) Accurately ripped
8 | (1/1) Accurately ripped
[AccurateRip ID: 0012e26b-00855cda-5c10cc08] disk not present in database.

Track Peak [ CRC32 ] [W/O NULL] [ LOG ]
– 100,0 [BDD0BD41] [5390D83A]
01 99,6 [EF3CCFDC] [C27BF962] CRC32
02 100,0 [69E7E820] [48A38110] CRC32
03 100,0 [6925A4F3] [4C87FD46] CRC32
04 100,0 [1AFF278A] [7796BFC2] CRC32
05 100,0 [43129917] [97C1254B] CRC32
06 99,5 [133D4952] [7ED07EBD] CRC32
07 99,4 [90EEC98C] [B6AF85A7] CRC32
08 100,0 [3CDF5CEC] [E466E809] CRC32

Thanks to gssmg7

Welcome to My Blog!

Astrowind – Kaidanovsky (2012) Download, Warez, DDL, Free, Full Album, Torrent, Legal.

Download