Asia – Then & Now (1990) | ViralVideoPk

Daily Dose of Free Downloads

Asia – Then & Now (1990)

Download

Asia - Then & Now (1990)

Asia – Then & Now (1990)
EAC | Flac(Image) + Cue + Log & MP3 CBR 320Kbps
Geffen, 7599-24298-2 | ~ 297 or 103 Mb | Scans(jpg) -> 23 Mb
Progressive Rock

Then & Now is British rock band Asia’s half fourth studio/half first greatest hits album. The six tracks 1–5 and 10 are from earlier albums ("Then"), while the four tracks 6–9 inclusive are new recordings ("Now"). It was released on 14 August 1990 in the United States by Geffen Records.

The record debuted at No. 114 on the Billboard 200 chart[4] and was certified Gold by the RIAA on 23 July 1998.[3] "Days Like These", written by the former band leader for The Unforgiven, Steve Jones, received airplay on FM radio and made it to No. 2 on the American Hot Mainstream Rock Tracks chart…

~ wiki

Asia - Then & Now (1990)

Asia at Wiki | Asia at Discogs | Asia at Allmusic | Asia HomePage

***********

Asia – Then & Now (1990):

Asia - Then & Now (1990)

Tracklist:

01. Only Time Will Tell (4:48)
02. Heat Of The Moment (3:53)
03. Wildest Dreams (5:12)
04. Don’t Cry (3:39)
05. The Smile Has Left Your Eyes (3:15)06. Days Like These (4:06)
07. Prayin’ 4 A Miracle (4:22)
08. Am I In Love? (4:26)
09. Summer (Can’t Last Too Long) (4:18)
10. Voice Of America (4:26)

EAC Log
Exact Audio Copy V1.1 from 23. June 2015

EAC extraction logfile from 18. December 2016, 18:13

Asia / Then & Now (7599-24298-2)

Used drive : HL-DT-STDVDRAM GE20NU11 Adapter: 1 ID: 0

Read mode : Secure
Utilize accurate stream : Yes
Defeat audio cache : Yes
Make use of C2 pointers : No

Read offset correction : 667
Overread into Lead-In and Lead-Out : No
Fill up missing offset samples with silence : Yes
Delete leading and trailing silent blocks : No
Null samples used in CRC calculations : Yes
Used interface : Native Win32 interface for Win NT & 2000

Used output format : User Defined Encoder
Selected bitrate : 896 kBit/s
Quality : High
Add ID3 tag : No
Command line compressor : C:Program FilesEAC 3Exact Audio CopyFlacflac.exe
Additional command line options : -V -8 %source%

TOC of the extracted CD

Track | Start | Length | Start sector | End sector
––––––––––––––––––––––––––––-
1 | 0:00.00 | 4:48.22 | 0 | 21621
2 | 4:48.22 | 3:53.03 | 21622 | 39099
3 | 8:41.25 | 5:12.57 | 39100 | 62556
4 | 13:54.07 | 3:39.18 | 62557 | 78999
5 | 17:33.25 | 3:15.32 | 79000 | 93656
6 | 20:48.57 | 4:06.33 | 93657 | 112139
7 | 24:55.15 | 4:22.42 | 112140 | 131831
8 | 29:17.57 | 4:26.08 | 131832 | 151789
9 | 33:43.65 | 4:18.65 | 151790 | 171204
10 | 38:02.55 | 4:26.30 | 171205 | 191184

Range status and errors

Selected range

Filename Z:OdWAsia – 1990 – Then & Now (7599-24298-2)Asia – Then & Now (7599-24298-2).wav

Peak level 100.0 %
Extraction speed 6.7 X
Range quality 99.9 %
Test CRC CDA42971
Copy CRC CDA42971
Copy OK

No errors occurred

AccurateRip summary

Track 1 accurately ripped (confidence 13) [2699777C] (AR v2)
Track 2 accurately ripped (confidence 14) [7A688ED1] (AR v2)
Track 3 accurately ripped (confidence 14) [9E0347DD] (AR v2)
Track 4 accurately ripped (confidence 14) [1E6678C6] (AR v2)
Track 5 accurately ripped (confidence 14) [31C67451] (AR v2)
Track 6 accurately ripped (confidence 14) [58100DD2] (AR v2)
Track 7 accurately ripped (confidence 14) [AA4B6D39] (AR v2)
Track 8 accurately ripped (confidence 14) [41746984] (AR v2)
Track 9 accurately ripped (confidence 14) [B2C6C02C] (AR v2)
Track 10 accurately ripped (confidence 14) [707BEC0C] (AR v2)

All tracks accurately ripped

End of status report

–– CUETools DB Plugin V2.1.6

[CTDB TOCID: JIHfr5v5V9aZBQo6lLZg1Bh8zUo-] found
Submit result: JIHfr5v5V9aZBQo6lLZg1Bh8zUo- has been confirmed
Track | CTDB Status
1 | (28/29) Accurately ripped
2 | (28/29) Accurately ripped
3 | (28/29) Accurately ripped
4 | (28/29) Accurately ripped
5 | (28/29) Accurately ripped
6 | (28/29) Accurately ripped
7 | (28/29) Accurately ripped
8 | (28/29) Accurately ripped
9 | (28/29) Accurately ripped
10 | (28/29) Accurately ripped

==== Log checksum 02A6485F9BD0A9A9D6C8AF3A2427C757C0464072B25D845CDF28BC75B00D82FF ====

DR Log
foobar2000 1.2.9 / Dynamic Range Meter 1.1.1
log date: 2016-12-31 15:44:59

––––––––––––––––––––––––––––––––––––––––
Analyzed: Asia / Then & Now (7599-24298-2)
––––––––––––––––––––––––––––––––––––––––

DR Peak RMS Duration Track
––––––––––––––––––––––––––––––––––––––––
DR10 0.00 dB -13.23 dB 4:48 01-Only Time Will Tell
DR10 -0.59 dB -13.06 dB 3:53 02-Heat Of The Moment
DR10 -0.52 dB -13.64 dB 5:13 03-Wildest Dreams
DR10 0.00 dB -12.09 dB 3:39 04-Don’t Cry
DR10 -0.10 dB -12.29 dB 3:15 05-The Smile Has Left Your Eyes
DR11 0.00 dB -13.21 dB 4:06 06-Days Like These
DR11 0.00 dB -13.38 dB 4:23 07-Prayin’ 4 A Miracle
DR12 0.00 dB -15.33 dB 4:26 08-Am I In Love?
DR11 0.00 dB -14.07 dB 4:19 09-Summer (Can’t Last Too Long)
DR11 0.00 dB -13.67 dB 4:26 10-Voice Of America
––––––––––––––––––––––––––––––––––––––––

Number of tracks: 10
Official DR value: DR11

Samplerate: 44100 Hz
Channels: 2
Bits per sample: 16
Bitrate: 949 kbps
Codec: FLAC

CUETools Log
[CUETools log; Date: 18.12.2016 18:26:58; Version: 2.1.5]
[CTDB TOCID: JIHfr5v5V9aZBQo6lLZg1Bh8zUo-] found.
[ CTDBID ] Status
[c1427610] (29/30) Accurately ripped
[04838f8f] (01/30) No match
Track | CTDB Status
1 | (29/30) Accurately ripped
2 | (29/30) Accurately ripped
3 | (29/30) Accurately ripped
4 | (29/30) Accurately ripped
5 | (29/30) Accurately ripped
6 | (29/30) Accurately ripped
7 | (29/30) Accurately ripped
8 | (29/30) Accurately ripped
9 | (29/30) Accurately ripped
10 | (29/30) Accurately ripped
[AccurateRip ID: 00101588-007fffc2-7f09f50a] found.
Track [ CRC | V2 ] Status
01 [96d67d48|2699777c] (23+13/36) Accurately ripped
02 [4961ba2f|7a688ed1] (23+14/37) Accurately ripped
03 [4017f21c|9e0347dd] (23+14/37) Accurately ripped
04 [5832730a|1e6678c6] (23+14/37) Accurately ripped
05 [423c1f5b|31c67451] (24+14/38) Accurately ripped
06 [a0417227|58100dd2] (23+14/37) Accurately ripped
07 [108178c0|aa4b6d39] (23+14/37) Accurately ripped
08 [353a98c1|41746984] (23+14/37) Accurately ripped
09 [cc65e11b|b2c6c02c] (23+14/37) Accurately ripped
10 [db160981|707bec0c] (23+14/37) Accurately ripped

Track Peak [ CRC32 ] [W/O NULL] [ LOG ]
– 100,0 [CDA42971] [7FD06CB0] CRC32
01 100,0 [E6372600] [4FBAA479]
02 93,4 [D8A27BCE] [C2B737D3]
03 94,1 [DFE5AC3D] [3118E623]
04 100,0 [EC2CAB1E] [E1AE5705]
05 98,8 [07DAA5C1] [5D6AB89A]
06 100,0 [538B5741] [A0E67C12]
07 100,0 [08AB93CB] [4A86FFE9]
08 100,0 [94BC820F] [F7D42D39]
09 100,0 [B16CD336] [41C3510F]
10 100,0 [77527E4B] [6BB7E650]

Asia - Then & Now (1990)

All thanks go to Olaf der Weisse

Asia in my Blog

Download Asia – Then & Now (1990):

Asia – Then & Now (1990) Download, Warez, DDL, Free, Full Album, Torrent, Legal.

Download


  • Recent Posts

  • Recent Tags