Arvo Part – Passio (1988) (The Hilliard Ensemble, P Hillier)

Download
Arvo Part - Passio (1988) (The Hilliard Ensemble, P Hillier)

Arvo Part – Passio (1988) (The Hilliard Ensemble, P Hillier)
Classical | 1cd | EAC Rip | Flac + Cue + Log | covers
ECM 1370 837109-2 | rel: 1988 | 305Mb

Pärt’s long-form The Passion of Our Lord Jesus Christ According to St. John dramatizes the apostle John’s account of the arrest and crucifixion of Jesus. The form he adopts sounds as though it were centuries old, with its choral orchestration. But his choice of instruments, his choice of chords, his phrasing, and the basic construction of the piece itself are all based on 20th century ideas, most notably his own innovation, the "tintinnabuli" method. The overall sound is significantly bigger than the small ensemble performing it; this is an innovative work, despite the classic subject matter. The text is taken verbatim from the Vulgate. ~Allmusic

Track listing
01. Passio Domini Nostri Jesu Christi Secundum Joannem (70:52)

eac log:
Exact Audio Copy V1.0 beta 4 from 7. December 2014

EAC extraction logfile from 25. March 2015, 21:58

Hilliard Ensemble, Paul Hillier / Passio

Used drive : SAMSUNG DVD R/RW SH-W08A Adapter: 1 ID: 0

Read mode : Secure
Utilize accurate stream : Yes
Defeat audio cache : Yes
Make use of C2 pointers : No

Read offset correction : 116
Overread into Lead-In and Lead-Out : No
Fill up missing offset samples with silence : Yes
Delete leading and trailing silent blocks : No
Null samples used in CRC calculations : Yes
Used interface : Native Win32 interface for Win NT & 2000
Gap handling : Appended to previous track

Used output format : User Defined Encoder
Selected bitrate : 768 kBit/s
Quality : High
Add ID3 tag : No
Command line compressor : D:Program FilesExact Audio CopyFLACFLAC.EXE
Additional command line options : -6 -V -T "ARTIST=%artist%" -T "TITLE=%title%" -T "ALBUM=%albumtitle%" -T "DATE=%year%" -T "TRACKNUMBER=%tracknr%" -T "GENRE=%genre%" -T "COMMENT=%comment%" -T "BAND=%albuminterpret%" -T "ALBUMARTIST=%albuminterpret%" -T "COMPOSER=%composer%" %haslyrics%–tag-from-file=LYRICS="%lyricsfile%"%haslyrics% -T "DISCNUMBER=%cdnumber%" -T "TOTALDISCS=%totalcds%" -T "TOTALTRACKS=%numtracks%" %hascover%–picture="%coverfile%"%hascover% %source% -o %dest%

TOC of the extracted CD

Track | Start | Length | Start sector | End sector
––––––––––––––––––––––––––––-
1 | 0:00.32 | 70:52.53 | 32 | 318984

Track 1

Filename D:EAC1 Passio Domini Nostri Jesu Christi Secundum Joannem.wav

Pre-gap length 0:00:02.32

Peak level 100.0 %
Extraction speed 6.8 X
Track quality 100.0 %
Test CRC 2412A3E4
Copy CRC 2412A3E4
Copy OK

No errors occurred

End of status report

cuetools report:
[CUETools log; Date: 2016. 12. 20. 22:03:05; Version: 2.1.6]
Pregap length 00:00:32.
[CTDB TOCID: 6CX23028c2iu8n6S8DYCibKZx0k-] found.
Track | CTDB Status
1 | (10/17) Accurately ripped
[AccurateRip ID: 0004de29-0009bc32-02109d01] found.
Track [ CRC | V2 ] Status
01 [c0ea4026|dfa58acc] (00+00/34) No match
Offsetted by -685:
01 [f9cd43fa] (08/34) Accurately ripped
Offsetted by -18:
01 [53651fa9] (08/34) Accurately ripped
Offsetted by 1334:
01 [19a88fb5] (03/34) Accurately ripped
Offsetted by 703:
01 [de74e3bf] (00/34) No match (V2 was not tested)
Offsetted by 1554:
01 [fd1a3997] (00/34) No match (V2 was not tested)

Track Peak [ CRC32 ] [W/O NULL] [ LOG ]
– 100,0 [A4BED9FF] [063F0F83] [2412A3E4]: CRC32 for track 1
01 100,0 [2412A3E4] [063F0F83] CRC32

Thx to Dutchpublisher

Arvo Part – Passio (1988) (The Hilliard Ensemble, P Hillier) Download, Warez, DDL, Free, Full Album, Torrent, Legal.

Download