Arvo Part – De Profundis (1999) {Harmonia Mundi HMU 907182}

Download
Arvo Part - De Profundis (1999) {Harmonia Mundi HMU 907182}

Arvo Pärt – De Profundis (1999) {Harmonia Mundi HMU 907182}
EAC rip (secure mode) | FLAC (tracks)+CUE+LOG -> 272 Mb | MP3 @320 -> 178 Mb
Full Artwork @ 300 dpi (jpg) -> 31 Mb | 5% repair rar
© 1996, 1999 Harmonia Mundi USA | HMU 907182
Classical / Contemporary Classical / Choral / Neo-Classical

Paul Hillier’s Theatre of Voices, like the Hilliard Ensemble with whom he was associated before settling in America, have given the music of Arvo Part a prominent place in their repertoire. Hillier has also written a book on Part – from which his notes accompanying this CD are mostly drawn (The Music of Arvo Part; OUP: 1997) – and in the collective interview run in last September’s issue (page 14) he described his first encounter with several of Part’s scores, “Something leapt out at me: this was the kind of music I had been waiting to perform”.

All this should point to performances of authority and conviction, but while there is no doubting the authority and sincerity behind Hillier’s interpretations, I can’t review this disc without certain reservations. Mostly, it must be said, these are centred on the very one-dimensional recording which does few favours to the singers and even fewer to the music itself. But the Theatre of Voices do not always convince me that they are totally at ease with either the detail or spirit of the music. Tuning is occasionally suspect; the celebratory opening of the Sanctus in the Missa Sillabica seems strained while some of the overlapping vocal entries in Solfeggio wobble disconcertingly. However, this latter piece also includes some of the most sublimely beautiful music on the disc – perhaps surprisingly so since it dates from 1964, long before Part had abandoned serialism and developed his characteristic, and immensely popular, ‘tintinnabuli’ style. However, reservations are easily outweighed by the strength of most of these performances. Clearly the singers relish the intensely moving And one of the Pharisees – as well they might since it was composed for them – and their obvious enchantment with the delightful little Cantate Domino is utterly infectious. I also find their performance of the Magnificat Antiphons singularly compelling.

Many of these works are receiving their first performance on disc and all represent a major contemporary composer at his best. That alone should provide more than enough recommendation for a disc which also contains some excellent choral singing.’

Arvo Part - De Profundis (1999) {Harmonia Mundi HMU 907182}

gramophone.co.uk review

Musicians:
Theatre of Voices – Choral ensemble
Paul Hillier
– director
Christopher Bowers-Broadbent – Organ
Dan Kennedy – percussion

tracklist:
01 – De Profundis (Psalm 129)
02 – Missa Sillabica – I. Kyrie
03 – Missa Sillabica – II. Gloria
04 – Missa Sillabica – III. Credo
05 – Missa Sillabica – IV. Sanctus
06 – Missa Sillabica – V. Agnus Dei
07 – Missa Sillabica – VI. Ite missa est
08 – Solfeggio
09 – ‘And one of the Pharisees’
10 – Cantate Domino (Psalm 95)
11 – Summa (Credo)
12 – Seven Magnificat Antiphons – I. O Weisheit
13 – Seven Magnificat Antiphons – II. O Adonai
14 – Seven Magnificat Antiphons – III. O Spross
15 – Seven Magnificat Antiphons – IV. O Schlussel
16 – Seven Magnificat Antiphons – V. O Morgenstern
17 – Seven Magnificat Antiphons – VI. O Konig
18 – Seven Magnificat Antiphons – VII. O Immanuel
19 – The Beatitudes
20 – Magnificat

EAC log
Exact Audio Copy V1.0 beta 3 from 29. August 2011

EAC extraction logfile from 14. April 2016, 20:14

Arvo Part / De Profundis

Used drive : hp CDDVDW SN-208BB Adapter: 0 ID: 1

Read mode : Secure
Utilize accurate stream : Yes
Defeat audio cache : Yes
Make use of C2 pointers : No

Read offset correction : 6
Overread into Lead-In and Lead-Out : No
Fill up missing offset samples with silence : Yes
Delete leading and trailing silent blocks : No
Null samples used in CRC calculations : Yes
Used interface : Native Win32 interface for Win NT & 2000
Gap handling : Appended to previous track

Used output format : User Defined Encoder
Selected bitrate : 128 kBit/s
Quality : High
Add ID3 tag : No
Command line compressor : C:Program Files (x86)Exact Audio CopyFlacflac.exe
Additional command line options : -8 -V -T "ARTIST=%artist%" -T "TITLE=%title%" -T "ALBUM=%albumtitle%" -T "DATE=%year%" -T "TRACKNUMBER=%tracknr%" -T "TOTALTRACKS=%numtracks%" -T "GENRE=%genre%" -T "ALBUMARTIST=%albumartist%" -T "ALBUM ARTIST=%albumartist%" -T "COMMENT=EAC Secure Mode, Test & Copy, AccurateRip, FLAC -8" %source%

TOC of the extracted CD

Track | Start | Length | Start sector | End sector
––––––––––––––––––––––––––––-
1 | 0:00.00 | 8:19.02 | 0 | 37426
2 | 8:19.02 | 2:23.73 | 37427 | 48224
3 | 10:43.00 | 2:18.15 | 48225 | 58589
4 | 13:01.15 | 3:45.15 | 58590 | 75479
5 | 16:46.30 | 1:19.57 | 75480 | 81461
6 | 18:06.12 | 2:37.15 | 81462 | 93251
7 | 20:43.27 | 0:30.18 | 93252 | 95519
8 | 21:13.45 | 5:19.60 | 95520 | 119504
9 | 26:33.30 | 10:11.45 | 119505 | 165374
10 | 36:45.00 | 2:53.25 | 165375 | 178374
11 | 39:38.25 | 6:27.42 | 178375 | 207441
12 | 46:05.67 | 1:51.43 | 207442 | 215809
13 | 47:57.35 | 2:54.57 | 215810 | 228916
14 | 50:52.17 | 1:06.65 | 228917 | 233931
15 | 51:59.07 | 1:57.50 | 233932 | 242756
16 | 53:56.57 | 2:11.40 | 242757 | 252621
17 | 56:08.22 | 1:29.58 | 252622 | 259354
18 | 57:38.05 | 3:30.22 | 259355 | 275126
19 | 61:08.27 | 8:13.15 | 275127 | 312116
20 | 69:21.42 | 6:47.08 | 312117 | 342649

Track 1

Filename E:EAC1 – De Profundis (Psalm 129).wav

Pre-gap length 0:00:02.00

Peak level 47.7 %
Extraction speed 2.8 X
Track quality 100.0 %
Test CRC C25D384F
Copy CRC C25D384F
Accurately ripped (confidence 21) [F50C6A55] (AR v2)
Copy OK

Track 2

Filename E:EAC2 – Missa Sillabica – I. Kyrie.wav

Peak level 3.7 %
Extraction speed 2.7 X
Track quality 100.0 %
Test CRC 1C2D3EDA
Copy CRC 1C2D3EDA
Accurately ripped (confidence 21) [256763CE] (AR v2)
Copy OK

Track 3

Filename E:EAC3 – Missa Sillabica – II. Gloria.wav

Pre-gap length 0:00:03.28

Peak level 22.4 %
Extraction speed 2.8 X
Track quality 100.0 %
Test CRC 9F92CD7C
Copy CRC 9F92CD7C
Accurately ripped (confidence 21) [FDDE3667] (AR v2)
Copy OK

Track 4

Filename E:EAC4 – Missa Sillabica – III. Credo.wav

Pre-gap length 0:00:02.60

Peak level 25.2 %
Extraction speed 3.2 X
Track quality 100.0 %
Test CRC F20180E6
Copy CRC F20180E6
Accurately ripped (confidence 21) [8A28F4D1] (AR v2)
Copy OK

Track 5

Filename E:EAC5 – Missa Sillabica – IV. Sanctus.wav

Peak level 47.4 %
Extraction speed 2.6 X
Track quality 100.0 %
Test CRC F39B61B9
Copy CRC F39B61B9
Accurately ripped (confidence 21) [B0FE01A7] (AR v2)
Copy OK

Track 6

Filename E:EAC6 – Missa Sillabica – V. Agnus Dei.wav

Peak level 3.1 %
Extraction speed 3.2 X
Track quality 100.0 %
Test CRC F8F64B3A
Copy CRC F8F64B3A
Accurately ripped (confidence 21) [8C1DAF4D] (AR v2)
Copy OK

Track 7

Filename E:EAC7 – Missa Sillabica – VI. Ite missa est.wav

Pre-gap length 0:00:02.17

Peak level 38.6 %
Extraction speed 1.6 X
Track quality 100.0 %
Test CRC C9AA03EB
Copy CRC C9AA03EB
Accurately ripped (confidence 21) [7AF78C23] (AR v2)
Copy OK

Track 8

Filename E:EAC8 – Solfeggio.wav

Pre-gap length 0:00:02.18

Peak level 27.5 %
Extraction speed 3.7 X
Track quality 100.0 %
Test CRC 9CE17EE6
Copy CRC 9CE17EE6
Accurately ripped (confidence 21) [80B0CC62] (AR v2)
Copy OK

Track 9

Filename E:EAC9 – ‘And one of the Pharisees’.wav

Pre-gap length 0:00:05.53

Peak level 21.3 %
Extraction speed 4.3 X
Track quality 100.0 %
Test CRC 7C035A2E
Copy CRC 7C035A2E
Accurately ripped (confidence 21) [F1A2FE44] (AR v2)
Copy OK

Track 10

Filename E:EAC10 – Cantate Domino (Psalm 95).wav

Pre-gap length 0:00:06.58

Peak level 32.8 %
Extraction speed 3.9 X
Track quality 100.0 %
Test CRC 39C81732
Copy CRC 39C81732
Accurately ripped (confidence 21) [F2409585] (AR v2)
Copy OK

Track 11

Filename E:EAC11 – Summa (Credo).wav

Pre-gap length 0:00:02.73

Peak level 23.1 %
Extraction speed 4.6 X
Track quality 100.0 %
Test CRC 3F91CF7F
Copy CRC 3F91CF7F
Accurately ripped (confidence 20) [3AAE6079] (AR v2)
Copy OK

Track 12

Filename E:EAC12 – Seven Magnificat Antiphons – I. O Weisheit.wav

Pre-gap length 0:00:03.32

Peak level 11.7 %
Extraction speed 2.5 X
Track quality 99.9 %
Test CRC E52CFB2E
Copy CRC E52CFB2E
Accurately ripped (confidence 21) [A1A80802] (AR v2)
Copy OK

Track 13

Filename E:EAC13 – Seven Magnificat Antiphons – II. O Adonai.wav

Pre-gap length 0:00:01.08

Peak level 4.8 %
Extraction speed 4.3 X
Track quality 100.0 %
Test CRC 9009DAE9
Copy CRC 9009DAE9
Accurately ripped (confidence 21) [BDF31DB2] (AR v2)
Copy OK

Track 14

Filename E:EAC14 – Seven Magnificat Antiphons – III. O Spross.wav

Pre-gap length 0:00:02.56

Peak level 23.9 %
Extraction speed 3.3 X
Track quality 100.0 %
Test CRC 261A75F9
Copy CRC 261A75F9
Accurately ripped (confidence 21) [6AB02E6A] (AR v2)
Copy OK

Track 15

Filename E:EAC15 – Seven Magnificat Antiphons – IV. O Schlussel.wav

Peak level 75.1 %
Extraction speed 4.1 X
Track quality 100.0 %
Test CRC 055F3FBB
Copy CRC 055F3FBB
Accurately ripped (confidence 21) [5223083C] (AR v2)
Copy OK

Track 16

Filename E:EAC16 – Seven Magnificat Antiphons – V. O Morgenstern.wav

Peak level 9.9 %
Extraction speed 4.3 X
Track quality 100.0 %
Test CRC 9D72D538
Copy CRC 9D72D538
Accurately ripped (confidence 21) [124ACFF2] (AR v2)
Copy OK

Track 17

Filename E:EAC17 – Seven Magnificat Antiphons – VI. O Konig.wav

Peak level 35.2 %
Extraction speed 3.9 X
Track quality 100.0 %
Test CRC 3C83DD76
Copy CRC 3C83DD76
Accurately ripped (confidence 21) [D44AC7A8] (AR v2)
Copy OK

Track 18

Filename E:EAC18 – Seven Magnificat Antiphons – VII. O Immanuel.wav

Peak level 49.4 %
Extraction speed 4.7 X
Track quality 100.0 %
Test CRC 12E64F37
Copy CRC 12E64F37
Accurately ripped (confidence 21) [33465237] (AR v2)
Copy OK

Track 19

Filename E:EAC19 – The Beatitudes.wav

Pre-gap length 0:00:05.27

Peak level 55.5 %
Extraction speed 5.3 X
Track quality 100.0 %
Test CRC 268A3CB9
Copy CRC 268A3CB9
Accurately ripped (confidence 21) [178D992A] (AR v2)
Copy OK

Track 20

Filename E:EAC20 – Magnificat.wav

Pre-gap length 0:00:05.57

Peak level 49.2 %
Extraction speed 5.5 X
Track quality 100.0 %
Test CRC 4A3033C2
Copy CRC 4A3033C2
Accurately ripped (confidence 20) [F97D3CD3] (AR v2)
Copy OK

All tracks accurately ripped

No errors occurred

End of status report

==== Log checksum BA93B679F3F3F59E46894D604ED9E488F342A86E11F713285C151771637B1B18 ====

Arvo Part - De Profundis (1999) {Harmonia Mundi HMU 907182}

Arvo Part - De Profundis (1999) {Harmonia Mundi HMU 907182}

All thanks goes to the original releaser!

see more Arvo Pärt…

NEXT -> More Arvo Pärt on the way…

===

Arvo Part – De Profundis (1999) {Harmonia Mundi HMU 907182} Download, Warez, DDL, Free, Full Album, Torrent, Legal.

Download